<svg xmlns="http://www.w3.org/2000/svg">
<defs>
<font
   horiz-adv-x="2048"
   id="font3912"
   horiz-origin-x="0"
   horiz-origin-y="0"
   vert-origin-x="45"
   vert-origin-y="90"
   vert-adv-y="90">
<!-- Segoe(TM) is a trademark of Agfa Monotype Corporation. -->
<!-- Copyright: Copyright 2020 Adobe System Incorporated. All rights reserved. -->
<font-face
   font-family="SegoeUI-Bold"
   units-per-em="2048"
   underline-position="-178"
   underline-thickness="119"
   id="font-face4" />
<missing-glyph
   horiz-adv-x="1322"
   d="M166,0l0,1398l990,0l0,-1398M314,148l694,0l0,1102l-694,0z"
   id="missing-glyph6" />
<glyph
   unicode=" "
   horiz-adv-x="0"
   id="glyph8" />
<glyph
   unicode=" "
   horiz-adv-x="565"
   id="glyph10" />
<glyph
   unicode="!"
   horiz-adv-x="670"
   d="M500,1434l-39,-988l-256,0l-37,988M336,-23C283,-23 239,-7 204,26C169,58 152,97 152,143C152,191 170,230 205,261C240,292 283,307 336,307C389,307 433,292 467,261C501,230 518,190 518,143C518,95 501,55 468,24C434,-7 390,-23 336,-23z"
   id="glyph12" />
<glyph
   unicode="&quot;"
   horiz-adv-x="1010"
   d="M834,1452l-31,-444l-201,0l-31,444M438,1452l-30,-442l-203,0l-29,442z"
   id="glyph14" />
<glyph
   unicode="#"
   horiz-adv-x="1213"
   d="M1176,1069l-39,-180l-185,0l-55,-248l207,0l-45,-180l-199,0l-78,-346l-200,0l73,346l-229,0l-74,-346l-200,0l71,346l-186,0l37,180l188,0l53,248l-202,0l34,180l205,0l74,356l205,0l-74,-356l229,0l76,356l203,0l-74,-356M750,889l-232,0l-55,-248l231,0z"
   id="glyph16" />
<glyph
   unicode="$"
   horiz-adv-x="1178"
   d="M674,8l0,-217l-146,0l0,211C393,3 267,33 150,94l0,277C189,340 246,311 323,284C400,257 468,242 528,238l0,364C372,660 266,723 209,791C152,858 123,941 123,1038C123,1143 160,1232 234,1306C308,1379 406,1422 528,1434l0,186l146,0l0,-182C815,1431 920,1409 989,1370l0,-270C896,1157 791,1191 674,1204l0,-379C820,772 925,712 988,645C1051,577 1083,495 1083,399C1083,288 1048,199 977,132C906,64 805,23 674,8M528,883l0,317C435,1183 389,1135 389,1055C389,986 435,929 528,883M674,545l0,-303C769,257 817,304 817,385C817,450 769,504 674,545z"
   id="glyph18" />
<glyph
   unicode="%"
   horiz-adv-x="1776"
   d="M430,707C328,707 246,739 184,804C121,869 90,956 90,1065C90,1184 123,1279 190,1349C256,1419 344,1454 455,1454C561,1454 644,1422 704,1359C763,1296 793,1207 793,1092C793,974 760,880 694,811C628,742 540,707 430,707M449,1278C352,1278 303,1210 303,1075C303,947 349,883 442,883C537,883 584,950 584,1083C584,1213 539,1278 449,1278M1477,1434l-934,-1434l-244,0l932,1434M1323,-20C1221,-20 1139,12 1077,77C1014,142 983,229 983,338C983,457 1016,552 1083,622C1149,692 1237,727 1348,727C1455,727 1538,696 1597,633C1656,570 1686,482 1686,367C1686,249 1653,155 1587,85C1521,15 1433,-20 1323,-20M1339,551C1242,551 1194,483 1194,348C1194,220 1241,156 1335,156C1430,156 1477,223 1477,356C1477,418 1464,466 1439,500C1414,534 1380,551 1339,551z"
   id="glyph20" />
<glyph
   unicode="&amp;"
   horiz-adv-x="1485"
   d="M1483,-2l-361,0l-108,121C962,76 896,42 815,15C734,-12 653,-25 573,-25C420,-25 301,11 214,83C127,154 84,250 84,371C84,530 193,667 412,782C315,899 266,1007 266,1108C266,1211 305,1295 383,1360C460,1425 561,1458 686,1458C806,1458 901,1428 972,1369C1042,1310 1077,1234 1077,1143C1077,1061 1054,991 1009,933C964,875 887,819 778,766l271,-293C1099,554 1124,653 1124,770l256,0C1380,581 1321,423 1204,295M819,1122C819,1160 806,1192 779,1218C752,1244 721,1257 686,1257C640,1257 603,1244 574,1219C545,1193 530,1158 530,1114C530,1064 570,994 651,905C763,967 819,1039 819,1122M866,281C821,330 713,448 543,635C435,577 381,498 381,399C381,336 403,286 446,249C489,212 541,193 604,193C708,193 795,222 866,281z"
   id="glyph22" />
<glyph
   unicode="'"
   horiz-adv-x="600"
   d="M430,1452l-31,-442l-200,0l-29,442z"
   id="glyph24" />
<glyph
   unicode="("
   horiz-adv-x="756"
   d="M739,-326l-258,0C266,-89 158,203 158,549C158,883 266,1178 481,1434l256,0C535,1166 434,871 434,549C434,227 536,-65 739,-326z"
   id="glyph26" />
<glyph
   unicode=")"
   horiz-adv-x="756"
   d="M274,-326l-256,0C222,-66 324,226 324,549C324,870 222,1165 18,1434l258,0C492,1177 600,882 600,549C600,206 491,-86 274,-326z"
   id="glyph28" />
<glyph
   unicode="*"
   horiz-adv-x="932"
   d="M864,1053l-274,-37l196,-211l-182,-125l-137,254l-137,-254l-183,125l197,211l-274,37l71,202l252,-108l-43,287l234,0l-43,-287l250,108z"
   id="glyph30" />
<glyph
   unicode="+"
   horiz-adv-x="1448"
   d="M1212,485l-385,0l0,-385l-202,0l0,385l-387,0l0,203l387,0l0,387l202,0l0,-387l385,0z"
   id="glyph32" />
<glyph
   unicode=","
   horiz-adv-x="555"
   d="M432,252l-147,-506l-246,0l102,506z"
   id="glyph34" />
<glyph
   unicode="-"
   horiz-adv-x="828"
   d="M690,436l-547,0l0,221l547,0z"
   id="glyph36" />
<glyph
   unicode="."
   horiz-adv-x="555"
   d="M274,-25C222,-25 179,-9 144,23C109,55 92,94 92,141C92,189 110,228 146,259C181,290 226,305 279,305C333,305 377,290 412,259C446,228 463,188 463,141C463,92 446,53 411,22C376,-9 330,-25 274,-25z"
   id="glyph38" />
<glyph
   unicode="/"
   horiz-adv-x="908"
   d="M932,1434l-699,-1672l-282,0l696,1672z"
   id="glyph40" />
<glyph
   unicode="0"
   horiz-adv-x="1178"
   d="M582,-25C241,-25 70,215 70,694C70,943 116,1132 209,1263C301,1393 435,1458 610,1458C943,1458 1110,1214 1110,727C1110,484 1065,298 974,169C883,40 752,-25 582,-25M596,1217C459,1217 391,1045 391,702C391,379 458,217 592,217C723,217 788,384 788,717C788,1050 724,1217 596,1217z"
   id="glyph42" />
<glyph
   unicode="1"
   horiz-adv-x="1178"
   d="M1077,0l-907,0l0,250l297,0l0,893l-305,-66l0,256l620,125l0,-1208l295,0z"
   id="glyph44" />
<glyph
   unicode="2"
   horiz-adv-x="1178"
   d="M471,268l0,-6l582,0l0,-262l-944,0l0,246l411,393C603,718 661,785 695,839C728,892 745,949 745,1008C745,1140 674,1206 532,1206C409,1206 291,1157 178,1059l0,278C303,1418 443,1458 600,1458C747,1458 861,1421 944,1348C1026,1274 1067,1174 1067,1049C1067,882 967,709 766,530z"
   id="glyph46" />
<glyph
   unicode="3"
   horiz-adv-x="1178"
   d="M147,47l0,275C243,252 355,217 483,217C564,217 627,234 672,269C717,304 739,352 739,414C739,478 711,527 656,562C600,597 523,614 426,614l-129,0l0,242l119,0C603,856 696,918 696,1042C696,1159 624,1217 481,1217C385,1217 292,1186 201,1124l0,258C302,1433 419,1458 553,1458C700,1458 814,1425 896,1359C977,1293 1018,1207 1018,1102C1018,915 923,797 733,750l0,-5C834,732 914,696 973,635C1032,574 1061,499 1061,410C1061,276 1012,170 914,92C816,14 681,-25 508,-25C360,-25 240,-1 147,47z"
   id="glyph48" />
<glyph
   unicode="4"
   horiz-adv-x="1178"
   d="M1124,305l-172,0l0,-305l-288,0l0,305l-625,0l0,201l602,928l311,0l0,-904l172,0M668,1118l-6,0C653,1094 635,1057 608,1006l-307,-476l363,0l0,451C664,1021 665,1067 668,1118z"
   id="glyph50" />
<glyph
   unicode="5"
   horiz-adv-x="1178"
   d="M164,37l0,270C262,247 366,217 477,217C560,217 626,237 673,277C720,316 743,370 743,438C743,580 643,651 442,651C377,651 298,645 205,633l0,801l794,0l0,-258l-524,0l0,-287C517,893 557,895 594,895C741,895 857,856 940,779C1023,702 1065,598 1065,467C1065,322 1015,204 916,113C817,21 682,-25 512,-25C374,-25 258,-4 164,37z"
   id="glyph52" />
<glyph
   unicode="6"
   horiz-adv-x="1178"
   d="M1008,1419l0,-264C935,1196 856,1217 770,1217C664,1217 579,1177 514,1096C449,1015 415,906 412,770l6,0C487,871 587,922 719,922C839,922 934,881 1005,800C1075,719 1110,611 1110,477C1110,333 1063,213 970,118C877,23 758,-25 614,-25C453,-25 327,33 236,150C145,267 100,430 100,641C100,889 158,1087 275,1236C392,1384 550,1458 750,1458C861,1458 947,1445 1008,1419M612,688C554,688 508,668 474,627C439,586 422,534 422,471C422,401 440,341 475,292C510,242 556,217 614,217C671,217 716,239 750,284C784,328 801,386 801,457C801,611 738,688 612,688z"
   id="glyph54" />
<glyph
   unicode="7"
   horiz-adv-x="1178"
   d="M1094,1288l-506,-1288l-334,0l510,1176l-668,0l0,258l998,0z"
   id="glyph56" />
<glyph
   unicode="8"
   horiz-adv-x="1178"
   d="M371,745l0,5C207,817 125,926 125,1077C125,1188 169,1279 257,1351C345,1422 459,1458 598,1458C740,1458 853,1425 938,1358C1023,1291 1065,1204 1065,1098C1065,941 974,826 793,752l0,-4C890,719 966,672 1020,607C1073,541 1100,467 1100,385C1100,258 1053,158 960,85C866,12 735,-25 567,-25C422,-25 305,11 216,83C127,154 82,249 82,367C82,538 178,664 371,745M768,1071C768,1120 753,1159 722,1188C691,1217 649,1231 598,1231C548,1231 507,1216 474,1186C441,1155 424,1116 424,1069C424,980 481,912 596,866C711,913 768,982 768,1071M582,625C448,572 381,492 381,383C381,331 402,288 443,254C484,220 533,203 592,203C655,203 706,220 745,253C784,286 803,330 803,385C803,494 729,574 582,625z"
   id="glyph58" />
<glyph
   unicode="9"
   horiz-adv-x="1178"
   d="M160,31l0,260C235,242 326,217 432,217C543,217 628,255 689,330C749,405 779,511 780,649l-6,2C711,557 614,510 485,510C368,510 271,551 194,633C117,715 78,821 78,952C78,1105 125,1227 219,1320C313,1412 435,1458 584,1458C737,1458 860,1400 951,1284C1042,1168 1087,1002 1087,786C1087,530 1032,331 923,189C813,46 660,-25 463,-25C346,-25 245,-6 160,31M575,1217C520,1217 475,1195 440,1151C405,1106 387,1049 387,979C387,906 405,849 440,808C475,766 522,745 582,745C637,745 681,765 716,805C751,844 768,894 768,954C768,1029 750,1092 714,1142C677,1192 631,1217 575,1217z"
   id="glyph60" />
<glyph
   unicode=":"
   horiz-adv-x="555"
   d="M274,707C222,707 179,723 144,755C109,786 92,825 92,872C92,920 110,959 146,990C181,1021 226,1036 279,1036C333,1036 377,1021 412,990C446,959 463,919 463,872C463,823 446,784 411,753C376,722 330,707 274,707M274,-25C222,-25 179,-9 144,23C109,55 92,94 92,141C92,189 110,228 146,259C181,290 226,305 279,305C333,305 377,290 412,259C446,228 463,188 463,141C463,92 446,53 411,22C376,-9 330,-25 274,-25z"
   id="glyph62" />
<glyph
   unicode=";"
   horiz-adv-x="555"
   d="M281,707C228,707 185,723 150,755C115,787 98,826 98,872C98,921 116,960 151,991C186,1021 230,1036 283,1036C337,1036 381,1021 416,990C450,959 467,919 467,872C467,823 450,784 416,753C382,722 337,707 281,707M432,252l-147,-506l-246,0l102,506z"
   id="glyph64" />
<glyph
   unicode="&lt;"
   horiz-adv-x="1448"
   d="M1192,63l-934,426l0,162l934,447l0,-238l-666,-285l0,-6l666,-268z"
   id="glyph66" />
<glyph
   unicode="="
   horiz-adv-x="1448"
   d="M1212,700l-974,0l0,205l974,0M1212,266l-974,0l0,203l974,0z"
   id="glyph68" />
<glyph
   unicode="&gt;"
   horiz-adv-x="1448"
   d="M1192,502l-934,-426l0,237l668,267l0,4l-668,286l0,238l934,-444z"
   id="glyph70" />
<glyph
   unicode="?"
   horiz-adv-x="897"
   d="M524,428l-260,0l0,84C264,634 312,735 408,815C473,870 516,914 535,947C554,979 563,1014 563,1053C563,1094 548,1129 517,1156C486,1183 446,1196 397,1196C287,1196 183,1152 84,1065l0,301C186,1427 301,1458 430,1458C573,1458 684,1426 762,1361C840,1296 879,1208 879,1096C879,958 809,832 670,717C616,672 578,635 557,604C535,573 524,532 524,483M401,-23C348,-23 303,-7 268,26C233,58 215,97 215,143C215,190 233,230 268,261C303,292 348,307 401,307C454,307 498,292 533,261C567,230 584,190 584,143C584,95 567,55 533,24C499,-7 455,-23 401,-23z"
   id="glyph72" />
<glyph
   unicode="@"
   horiz-adv-x="1954"
   d="M1122,371l-6,0C1069,244 985,180 862,180C770,180 696,213 640,280C583,347 555,439 555,557C555,710 594,834 672,930C750,1025 844,1073 954,1073C1053,1073 1116,1034 1141,956l4,0l10,99l225,0C1350,771 1335,585 1335,498C1335,405 1360,358 1411,358C1464,358 1508,393 1543,464C1578,535 1595,627 1595,741C1595,897 1545,1025 1446,1125C1347,1224 1208,1274 1030,1274C839,1274 681,1208 555,1075C428,942 365,779 365,588C365,403 421,257 533,150C644,43 798,-10 995,-10C1145,-10 1282,19 1407,76l0,-191C1293,-164 1146,-188 967,-188C721,-188 521,-117 367,24C212,165 135,354 135,592C135,835 217,1039 382,1204C547,1369 759,1452 1018,1452C1258,1452 1452,1388 1601,1260C1749,1131 1823,962 1823,752C1823,579 1778,441 1687,337C1596,232 1484,180 1350,180C1284,180 1230,198 1189,233C1148,268 1125,314 1122,371M989,899C929,899 880,865 843,797C805,728 786,649 786,559C786,495 799,445 825,410C850,374 883,356 924,356C987,356 1036,390 1072,457C1108,524 1126,614 1126,727C1126,780 1114,822 1089,853C1064,884 1030,899 989,899z"
   id="glyph74" />
<glyph
   unicode="A"
   horiz-adv-x="1440"
   d="M1425,0l-352,0l-102,319l-510,0l-101,-319l-350,0l522,1434l383,0M897,567l-154,482C732,1085 724,1128 719,1178l-8,0C708,1136 699,1094 686,1053l-156,-486z"
   id="glyph76" />
<glyph
   unicode="B"
   horiz-adv-x="1313"
   d="M164,0l0,1434l522,0C846,1434 969,1405 1055,1346C1141,1287 1184,1205 1184,1098C1184,1021 1158,953 1106,895C1053,837 986,797 905,774l0,-4C1007,757 1089,720 1150,657C1211,594 1241,518 1241,428C1241,297 1194,193 1100,116C1006,39 878,0 715,0M487,1196l0,-340l142,0C696,856 748,872 787,905C825,937 844,981 844,1038C844,1143 765,1196 608,1196M487,616l0,-378l175,0C737,238 795,255 838,290C880,325 901,372 901,432C901,489 880,534 839,567C797,600 739,616 664,616z"
   id="glyph78" />
<glyph
   unicode="C"
   horiz-adv-x="1278"
   d="M1192,51C1087,0 951,-25 782,-25C562,-25 389,40 263,169C137,298 74,471 74,686C74,915 145,1101 287,1244C428,1387 612,1458 838,1458C978,1458 1096,1440 1192,1405l0,-311C1096,1151 987,1180 864,1180C729,1180 621,1138 538,1053C455,968 414,854 414,709C414,570 453,460 531,378C609,295 714,254 846,254C972,254 1087,285 1192,346z"
   id="glyph80" />
<glyph
   unicode="D"
   horiz-adv-x="1510"
   d="M164,0l0,1434l508,0C1181,1434 1436,1201 1436,735C1436,512 1367,333 1228,200C1089,67 903,0 672,0M487,1171l0,-909l160,0C787,262 897,304 977,388C1056,472 1096,586 1096,731C1096,868 1057,975 978,1054C899,1132 788,1171 645,1171z"
   id="glyph82" />
<glyph
   unicode="E"
   horiz-adv-x="1090"
   d="M1024,0l-860,0l0,1434l827,0l0,-263l-504,0l0,-319l469,0l0,-262l-469,0l0,-328l537,0z"
   id="glyph84" />
<glyph
   unicode="F"
   horiz-adv-x="1065"
   d="M993,1171l-506,0l0,-352l465,0l0,-262l-465,0l0,-557l-323,0l0,1434l829,0z"
   id="glyph86" />
<glyph
   unicode="G"
   horiz-adv-x="1456"
   d="M1341,96C1201,15 1027,-25 819,-25C588,-25 407,39 274,167C141,294 74,470 74,694C74,919 147,1103 292,1245C437,1387 631,1458 872,1458C1024,1458 1158,1437 1274,1395l0,-303C1163,1156 1028,1188 868,1188C734,1188 625,1145 541,1058C456,971 414,854 414,709C414,562 452,448 528,367C603,286 705,246 834,246C911,246 973,257 1018,279l0,280l-287,0l0,258l610,0z"
   id="glyph88" />
<glyph
   unicode="H"
   horiz-adv-x="1569"
   d="M1405,0l-324,0l0,584l-594,0l0,-584l-323,0l0,1434l323,0l0,-572l594,0l0,572l324,0z"
   id="glyph90" />
<glyph
   unicode="I"
   horiz-adv-x="649"
   d="M487,0l-323,0l0,1434l323,0z"
   id="glyph92" />
<glyph
   unicode="J"
   horiz-adv-x="912"
   d="M762,569C762,377 718,230 629,128C540,26 411,-25 242,-25C167,-25 97,-12 33,14l0,303C88,275 150,254 219,254C366,254 440,363 440,582l0,852l322,0z"
   id="glyph94" />
<glyph
   unicode="K"
   horiz-adv-x="1329"
   d="M1356,0l-408,0l-418,623C522,635 509,661 492,702l-5,0l0,-702l-323,0l0,1434l323,0l0,-678l5,0C500,775 513,801 532,836l396,598l385,0l-500,-684z"
   id="glyph96" />
<glyph
   unicode="L"
   horiz-adv-x="1047"
   d="M1018,0l-854,0l0,1434l323,0l0,-1172l531,0z"
   id="glyph98" />
<glyph
   unicode="M"
   horiz-adv-x="1960"
   d="M1798,0l-319,0l0,858C1479,951 1483,1053 1491,1165l-8,0C1466,1077 1451,1014 1438,975l-336,-975l-264,0l-342,965C487,991 472,1058 451,1165l-9,0C451,1024 455,900 455,793l0,-793l-291,0l0,1434l473,0l293,-850C953,516 970,448 981,379l6,0C1005,458 1024,527 1044,586l293,848l461,0z"
   id="glyph100" />
<glyph
   unicode="N"
   horiz-adv-x="1618"
   d="M1454,0l-326,0l-591,901C502,954 478,993 465,1020l-4,0C466,969 469,892 469,788l0,-788l-305,0l0,1434l348,0l569,-873C1107,522 1131,483 1153,444l4,0C1152,477 1149,543 1149,641l0,793l305,0z"
   id="glyph102" />
<glyph
   unicode="O"
   horiz-adv-x="1553"
   d="M770,-25C565,-25 397,42 268,176C139,309 74,483 74,698C74,925 140,1108 271,1248C402,1388 576,1458 793,1458C998,1458 1163,1391 1290,1257C1416,1123 1479,946 1479,727C1479,502 1414,320 1283,182C1152,44 981,-25 770,-25M784,1180C671,1180 581,1138 514,1053C447,968 414,855 414,715C414,573 447,461 514,378C581,295 668,254 776,254C887,254 976,294 1041,375C1106,455 1139,566 1139,709C1139,858 1107,973 1044,1056C981,1139 894,1180 784,1180z"
   id="glyph104" />
<glyph
   unicode="P"
   horiz-adv-x="1258"
   d="M487,494l0,-494l-323,0l0,1434l506,0C1031,1434 1212,1282 1212,977C1212,833 1160,717 1057,628C953,539 814,494 641,494M487,1186l0,-447l127,0C786,739 872,814 872,965C872,1112 786,1186 614,1186z"
   id="glyph106" />
<glyph
   unicode="Q"
   horiz-adv-x="1553"
   d="M1040,27l416,-385l-420,0l-297,333C543,-18 383,51 260,184C136,317 74,488 74,698C74,925 140,1108 271,1248C402,1388 576,1458 795,1458C998,1458 1163,1391 1290,1257C1416,1122 1479,946 1479,727C1479,555 1441,408 1364,286C1287,163 1179,77 1040,27M784,1180C671,1180 581,1138 514,1053C447,968 414,855 414,715C414,573 447,461 514,378C580,295 667,254 776,254C887,254 976,294 1041,375C1106,455 1139,566 1139,709C1139,856 1108,971 1045,1055C982,1138 895,1180 784,1180z"
   id="glyph108" />
<glyph
   unicode="R"
   horiz-adv-x="1303"
   d="M1266,0l-371,0l-145,369C703,489 638,549 557,549l-70,0l0,-549l-323,0l0,1434l512,0C1024,1434 1198,1304 1198,1044C1198,945 1170,861 1113,792C1056,723 976,676 874,649l0,-4C958,618 1026,545 1079,424M487,1192l0,-399l140,0C696,793 752,813 795,854C837,894 858,944 858,1004C858,1129 783,1192 633,1192z"
   id="glyph110" />
<glyph
   unicode="S"
   horiz-adv-x="1098"
   d="M106,55l0,320C221,278 347,229 485,229C551,229 602,243 639,270C676,297 694,332 694,375C694,412 679,448 648,481C617,514 544,557 428,612C209,715 100,855 100,1032C100,1161 148,1264 243,1342C338,1419 464,1458 623,1458C763,1458 879,1440 971,1403l0,-299C875,1171 765,1204 641,1204C579,1204 530,1191 494,1164C458,1137 440,1102 440,1059C440,1016 454,980 483,950C511,920 571,883 662,840C803,773 901,706 954,639C1007,572 1034,494 1034,403C1034,271 987,167 892,90C797,13 658,-25 477,-25C328,-25 205,2 106,55z"
   id="glyph112" />
<glyph
   unicode="T"
   horiz-adv-x="1200"
   d="M1171,1171l-409,0l0,-1171l-324,0l0,1171l-407,0l0,263l1140,0z"
   id="glyph114" />
<glyph
   unicode="U"
   horiz-adv-x="1481"
   d="M1333,621C1333,190 1132,-25 731,-25C342,-25 147,185 147,606l0,828l324,0l0,-832C471,370 562,254 743,254C921,254 1010,366 1010,590l0,844l323,0z"
   id="glyph116" />
<glyph
   unicode="V"
   horiz-adv-x="1366"
   d="M1358,1434l-494,-1434l-366,0l-488,1434l348,0l299,-998C673,382 683,334 686,293l6,0C697,338 707,387 723,440l297,994z"
   id="glyph118" />
<glyph
   unicode="W"
   horiz-adv-x="2058"
   d="M2040,1434l-379,-1434l-358,0l-238,920C1052,968 1045,1022 1042,1081l-4,0C1032,1016 1023,962 1012,920l-244,-920l-373,0l-377,1434l353,0l202,-955C582,438 588,384 592,315l6,0C601,366 610,422 627,483l260,951l346,0l235,-963C1477,436 1484,384 1491,317l4,0C1498,370 1505,423 1516,477l198,957z"
   id="glyph120" />
<glyph
   unicode="X"
   horiz-adv-x="1342"
   d="M1335,0l-383,0l-247,467C696,484 686,516 676,563l-4,0C667,541 656,508 639,463l-248,-463l-385,0l457,717l-418,717l393,0l205,-430C659,970 673,930 686,883l4,0C698,911 713,953 735,1008l228,426l360,0l-430,-711z"
   id="glyph122" />
<glyph
   unicode="Y"
   horiz-adv-x="1243"
   d="M1245,1434l-467,-924l0,-510l-323,0l0,504l-455,930l369,0l231,-535C604,889 615,850 633,782l4,0C646,830 656,868 668,895l235,539z"
   id="glyph124" />
<glyph
   unicode="Z"
   horiz-adv-x="1243"
   d="M1196,0l-1155,0l0,186l735,985l-682,0l0,263l1100,0l0,-181l-719,-991l721,0z"
   id="glyph126" />
<glyph
   unicode="["
   horiz-adv-x="756"
   d="M686,-326l-469,0l0,1760l469,0l0,-201l-209,0l0,-1358l209,0z"
   id="glyph128" />
<glyph
   unicode="\"
   horiz-adv-x="893"
   d="M961,-238l-279,0l-682,1672l281,0z"
   id="glyph130" />
<glyph
   unicode="]"
   horiz-adv-x="756"
   d="M541,-326l-471,0l0,201l211,0l0,1358l-211,0l0,201l471,0z"
   id="glyph132" />
<glyph
   unicode="^"
   horiz-adv-x="1448"
   d="M1249,610l-243,0l-287,586l-4,0l-271,-586l-241,0l430,848l162,0z"
   id="glyph134" />
<glyph
   unicode="_"
   horiz-adv-x="850"
   d="M850,-297l-850,0l0,119l850,0z"
   id="glyph136" />
<glyph
   unicode="`"
   horiz-adv-x="643"
   d="M596,1186l-227,0l-314,323l281,0z"
   id="glyph138" />
<glyph
   unicode="a"
   horiz-adv-x="1102"
   d="M985,0l-299,0l0,147l-4,0C613,32 512,-25 377,-25C278,-25 200,3 143,60C86,116 57,191 57,285C57,484 175,598 410,629l278,37C688,778 627,834 506,834C384,834 268,798 158,725l0,238C202,986 262,1006 339,1023C415,1040 484,1049 547,1049C839,1049 985,903 985,612M688,416l0,69l-186,-24C399,448 348,401 348,322C348,286 361,257 386,234C411,211 444,199 487,199C546,199 595,220 632,261C669,302 688,353 688,416z"
   id="glyph140" />
<glyph
   unicode="b"
   horiz-adv-x="1270"
   d="M453,119l-4,0l0,-119l-316,0l0,1516l316,0l0,-646l4,0C531,989 642,1049 786,1049C918,1049 1020,1004 1091,913C1162,822 1198,698 1198,541C1198,370 1156,233 1073,130C990,27 878,-25 739,-25C613,-25 518,23 453,119M444,551l0,-105C444,380 463,325 501,282C539,239 588,217 647,217C719,217 775,245 815,301C854,356 874,435 874,537C874,622 856,688 820,736C783,783 731,807 664,807C601,807 548,783 507,736C465,689 444,627 444,551z"
   id="glyph142" />
<glyph
   unicode="c"
   horiz-adv-x="983"
   d="M909,37C838,-4 735,-25 600,-25C443,-25 315,23 218,118C121,213 72,336 72,487C72,661 124,798 229,899C333,999 472,1049 647,1049C768,1049 855,1033 909,1001l0,-268C843,782 769,807 688,807C597,807 526,781 473,728C420,675 393,601 393,508C393,417 418,346 469,295C520,243 589,217 678,217C757,217 834,242 909,291z"
   id="glyph144" />
<glyph
   unicode="d"
   horiz-adv-x="1268"
   d="M1135,0l-316,0l0,141l-4,0C743,30 637,-25 498,-25C370,-25 267,20 189,111C111,201 72,327 72,489C72,658 115,794 201,896C287,998 400,1049 539,1049C671,1049 763,1002 815,907l4,0l0,609l316,0M825,498l0,77C825,642 806,697 767,741C728,785 678,807 616,807C546,807 491,780 452,725C413,670 393,594 393,498C393,408 412,339 450,290C488,241 541,217 608,217C672,217 724,243 765,294C805,345 825,413 825,498z"
   id="glyph146" />
<glyph
   unicode="e"
   horiz-adv-x="1108"
   d="M1053,422l-668,0C396,273 489,199 666,199C779,199 878,226 963,279l0,-228C868,0 745,-25 594,-25C429,-25 300,21 209,113C118,204 72,332 72,496C72,666 121,801 220,900C319,999 440,1049 584,1049C733,1049 849,1005 931,916C1012,827 1053,707 1053,555M760,616C760,763 701,836 582,836C531,836 488,815 451,773C414,731 391,679 383,616z"
   id="glyph148" />
<glyph
   unicode="f"
   horiz-adv-x="785"
   d="M801,1274C760,1290 721,1298 684,1298C583,1298 532,1243 532,1133l0,-109l234,0l0,-233l-234,0l0,-791l-315,0l0,791l-172,0l0,233l172,0l0,127C217,1268 255,1362 331,1433C407,1504 510,1540 641,1540C705,1540 758,1533 801,1520z"
   id="glyph150" />
<glyph
   unicode="g"
   horiz-adv-x="1268"
   d="M1137,117C1137,-73 1082,-220 972,-324C862,-429 703,-481 494,-481C356,-481 247,-461 166,-422l0,266C271,-217 378,-248 485,-248C592,-248 674,-220 733,-163C792,-107 821,-31 821,66l0,81l-4,0C745,32 639,-25 498,-25C367,-25 264,21 187,113C110,205 72,328 72,483C72,656 115,794 200,896C285,998 398,1049 537,1049C662,1049 755,1001 817,905l4,0l0,119l316,0M825,492l0,81C825,638 806,693 768,739C729,784 679,807 618,807C548,807 493,780 453,725C413,670 393,593 393,494C393,409 412,341 450,292C488,242 540,217 606,217C671,217 724,242 765,293C805,343 825,409 825,492z"
   id="glyph152" />
<glyph
   unicode="h"
   horiz-adv-x="1233"
   d="M1116,0l-315,0l0,582C801,732 746,807 637,807C581,807 536,786 501,744C466,702 449,649 449,584l0,-584l-316,0l0,1516l316,0l0,-644l4,0C530,990 635,1049 768,1049C1000,1049 1116,909 1116,629z"
   id="glyph154" />
<glyph
   unicode="i"
   horiz-adv-x="582"
   d="M293,1186C240,1186 196,1202 162,1234C128,1265 111,1304 111,1350C111,1397 128,1436 162,1466C196,1496 240,1511 293,1511C347,1511 391,1496 425,1466C458,1436 475,1397 475,1350C475,1302 458,1263 425,1232C391,1201 347,1186 293,1186M449,0l-316,0l0,1024l316,0z"
   id="glyph156" />
<glyph
   unicode="j"
   horiz-adv-x="582"
   d="M293,1186C240,1186 196,1202 162,1234C128,1265 111,1304 111,1350C111,1397 128,1436 162,1466C196,1496 240,1511 293,1511C347,1511 391,1496 425,1466C458,1436 475,1397 475,1350C475,1302 458,1263 425,1232C391,1201 347,1186 293,1186M449,18C449,-133 412,-254 338,-345C264,-436 157,-481 18,-481C-28,-481 -78,-471 -133,-451l0,248C-89,-228 -50,-240 -16,-240C83,-240 133,-162 133,-6l0,1030l316,0z"
   id="glyph158" />
<glyph
   unicode="k"
   horiz-adv-x="1145"
   d="M1159,0l-379,0l-327,508l-4,0l0,-508l-316,0l0,1516l316,0l0,-965l4,0l305,473l375,0l-367,-481z"
   id="glyph160" />
<glyph
   unicode="l"
   horiz-adv-x="582"
   d="M449,0l-316,0l0,1516l316,0z"
   id="glyph162" />
<glyph
   unicode="m"
   horiz-adv-x="1876"
   d="M1759,0l-315,0l0,584C1444,733 1389,807 1280,807C1228,807 1186,785 1153,740C1120,695 1104,640 1104,573l0,-573l-316,0l0,590C788,735 734,807 627,807C573,807 530,786 498,743C465,700 449,642 449,569l0,-569l-316,0l0,1024l316,0l0,-160l4,0C486,919 532,963 591,998C650,1032 714,1049 784,1049C929,1049 1028,985 1081,858C1159,985 1274,1049 1425,1049C1648,1049 1759,912 1759,637z"
   id="glyph164" />
<glyph
   unicode="n"
   horiz-adv-x="1239"
   d="M1122,0l-315,0l0,569C807,728 750,807 637,807C582,807 537,786 502,744C467,702 449,649 449,584l0,-584l-316,0l0,1024l316,0l0,-162l4,0C528,987 638,1049 782,1049C1009,1049 1122,908 1122,627z"
   id="glyph166" />
<glyph
   unicode="o"
   horiz-adv-x="1252"
   d="M621,-25C450,-25 316,23 219,119C121,214 72,344 72,508C72,677 123,810 224,906C325,1001 462,1049 635,1049C805,1049 938,1001 1035,906C1132,810 1180,683 1180,526C1180,356 1130,222 1031,123C931,24 794,-25 621,-25M629,807C554,807 496,781 455,730C414,679 393,606 393,512C393,315 472,217 631,217C782,217 858,318 858,520C858,711 782,807 629,807z"
   id="glyph168" />
<glyph
   unicode="p"
   horiz-adv-x="1270"
   d="M453,119l-4,0l0,-590l-316,0l0,1495l316,0l0,-154l4,0C531,989 641,1049 782,1049C915,1049 1017,1004 1090,913C1162,822 1198,698 1198,541C1198,370 1156,233 1072,130C987,27 875,-25 735,-25C612,-25 518,23 453,119M444,539l0,-82C444,386 463,329 500,284C537,239 586,217 647,217C719,217 775,245 815,301C854,356 874,435 874,537C874,717 804,807 664,807C599,807 547,783 506,734C465,685 444,620 444,539z"
   id="glyph170" />
<glyph
   unicode="q"
   horiz-adv-x="1268"
   d="M1135,-471l-316,0l0,612l-4,0C744,30 639,-25 500,-25C371,-25 268,20 190,110C111,199 72,325 72,487C72,658 115,794 201,896C287,998 399,1049 537,1049C662,1049 755,1001 815,905l4,0l0,119l316,0M825,489l0,82C825,638 806,694 767,739C728,784 679,807 618,807C548,807 493,780 453,725C413,670 393,593 393,496C393,409 413,340 452,291C491,242 541,217 604,217C671,217 724,242 765,292C805,342 825,408 825,489z"
   id="glyph172" />
<glyph
   unicode="r"
   horiz-adv-x="815"
   d="M801,739C763,760 719,770 668,770C599,770 546,745 507,695C468,644 449,576 449,489l0,-489l-316,0l0,1024l316,0l0,-190l4,0C503,973 593,1042 723,1042C756,1042 782,1038 801,1030z"
   id="glyph174" />
<glyph
   unicode="s"
   horiz-adv-x="901"
   d="M94,27l0,256C198,221 296,190 387,190C487,190 537,221 537,283C537,310 525,333 501,350C477,367 425,391 344,422C251,457 186,499 149,546C112,593 94,652 94,723C94,822 133,901 211,960C289,1019 393,1049 524,1049C609,1049 693,1035 778,1008l0,-244C699,811 615,834 528,834C445,834 403,805 403,748C403,719 413,696 433,678C453,660 496,639 563,616C665,580 737,538 778,491C819,443 840,384 840,313C840,210 801,128 722,67C643,6 532,-25 391,-25C285,-25 186,-8 94,27z"
   id="glyph176" />
<glyph
   unicode="t"
   horiz-adv-x="797"
   d="M752,12C705,-13 635,-25 541,-25C318,-25 207,91 207,322l0,469l-166,0l0,233l166,0l0,221l315,90l0,-311l230,0l0,-233l-230,0l0,-414C522,270 564,217 649,217C682,217 717,227 752,246z"
   id="glyph178" />
<glyph
   unicode="u"
   horiz-adv-x="1239"
   d="M1106,0l-315,0l0,156l-5,0C708,35 604,-25 473,-25C236,-25 117,119 117,406l0,618l315,0l0,-590C432,289 489,217 604,217C661,217 706,237 740,277C774,316 791,370 791,438l0,586l315,0z"
   id="glyph180" />
<glyph
   unicode="v"
   horiz-adv-x="1110"
   d="M1108,1024l-381,-1024l-360,0l-363,1024l338,0l178,-631C540,322 552,261 555,211l4,0C564,258 576,317 596,387l182,637z"
   id="glyph182" />
<glyph
   unicode="w"
   horiz-adv-x="1633"
   d="M1616,1024l-295,-1024l-332,0l-151,600C828,640 822,684 821,731l-6,0C810,679 804,637 795,604l-162,-604l-328,0l-289,1024l322,0l141,-668C486,325 491,287 494,242l6,0C503,289 509,328 518,360l176,664l301,0l158,-668C1157,339 1162,301 1167,240l7,0C1177,279 1183,317 1190,356l133,668z"
   id="glyph184" />
<glyph
   unicode="x"
   horiz-adv-x="1131"
   d="M1122,1024l-338,-496l336,-528l-364,0l-148,276C596,298 582,329 565,369l-4,0C551,341 537,311 520,279l-149,-279l-363,0l346,510l-325,514l366,0l146,-287C560,699 574,667 582,641l4,0C597,672 611,705 629,739l149,285z"
   id="glyph186" />
<glyph
   unicode="y"
   horiz-adv-x="1102"
   d="M1108,1024l-416,-1106C592,-348 441,-481 240,-481C163,-481 100,-472 51,-455l0,252C93,-228 139,-240 188,-240C269,-240 326,-202 358,-125l54,127l-416,1022l350,0l191,-623C549,362 558,317 565,264l4,0C575,303 586,348 602,399l193,625z"
   id="glyph188" />
<glyph
   unicode="z"
   horiz-adv-x="981"
   d="M944,0l-919,0l0,131l514,660l-463,0l0,233l864,0l0,-156l-487,-635l491,0z"
   id="glyph190" />
<glyph
   unicode="{"
   horiz-adv-x="756"
   d="M674,-326C529,-326 423,-299 357,-246C291,-193 258,-98 258,39l0,240C258,402 207,463 106,463l0,184C207,647 258,711 258,838l0,223C258,1198 291,1295 356,1351C421,1406 527,1434 674,1434l0,-187C567,1247 514,1189 514,1073l0,-213C514,700 463,599 360,557l0,-4C463,512 514,409 514,246l0,-205C514,-24 527,-71 552,-98C577,-125 617,-139 674,-139z"
   id="glyph192" />
<glyph
   unicode="|"
   horiz-adv-x="668"
   d="M461,-481l-252,0l0,2048l252,0z"
   id="glyph194" />
<glyph
   unicode="}"
   horiz-adv-x="756"
   d="M651,463C549,463 498,401 498,276l0,-231C498,-96 466,-193 401,-246C336,-299 230,-326 84,-326l0,187C140,-139 181,-125 206,-98C231,-71 244,-26 244,39l0,213C244,411 295,511 397,551l0,4C295,597 244,701 244,868l0,205C244,1189 191,1247 84,1247l0,187C229,1434 335,1406 400,1351C465,1295 498,1200 498,1065l0,-229C498,710 549,647 651,647z"
   id="glyph196" />
<glyph
   unicode="~"
   horiz-adv-x="1448"
   d="M1255,772C1251,660 1221,571 1166,506C1110,441 1035,408 942,408C871,408 785,437 684,496C611,538 559,559 528,559C446,559 403,506 399,399l-204,0C199,512 229,601 285,666C340,731 416,764 512,764C587,764 666,739 750,688C837,636 897,610 930,610C965,610 993,625 1016,655C1038,684 1050,723 1051,772z"
   id="glyph198" />
<glyph
   unicode="Ä"
   horiz-adv-x="1440"
   d="M1425,0l-352,0l-102,319l-510,0l-101,-319l-350,0l522,1434l383,0M897,567l-154,482C732,1085 724,1128 719,1178l-8,0C708,1136 699,1094 686,1053l-156,-486M945,1567C900,1567 864,1580 835,1606C806,1632 792,1665 792,1704C792,1745 806,1778 835,1803C864,1828 900,1841 945,1841C990,1841 1027,1828 1056,1803C1085,1777 1099,1744 1099,1704C1099,1664 1085,1631 1056,1606C1027,1580 990,1567 945,1567M487,1567C442,1567 405,1580 376,1607C347,1633 333,1665 333,1704C333,1744 348,1777 377,1803C406,1828 443,1841 487,1841C532,1841 569,1828 598,1803C626,1777 640,1744 640,1704C640,1663 626,1630 598,1605C569,1580 532,1567 487,1567z"
   id="glyph200" />
<glyph
   unicode="Å"
   horiz-adv-x="1440"
   d="M1425,0l-352,0l-102,319l-510,0l-101,-319l-350,0l512,1407C487,1443 469,1489 469,1544C469,1615 494,1671 543,1713C592,1755 652,1776 723,1776C799,1776 860,1755 907,1713C954,1670 977,1615 977,1548C977,1495 959,1449 924,1411M719,1645C688,1645 663,1636 644,1617C625,1598 616,1574 616,1546C616,1481 650,1448 719,1448C751,1448 777,1458 796,1477C815,1496 825,1519 825,1546C825,1575 815,1598 796,1617C776,1636 750,1645 719,1645M893,584l-152,465C732,1076 725,1116 719,1169l-8,0C706,1124 699,1085 688,1053l-153,-469z"
   id="glyph202" />
<glyph
   unicode="Ç"
   horiz-adv-x="1278"
   d="M1192,51C1099,6 978,-19 829,-25l0,-57C954,-87 1016,-143 1016,-248C1016,-386 910,-455 698,-455C667,-455 638,-454 610,-451l0,138C633,-317 657,-319 682,-319C764,-319 805,-295 805,-246C805,-202 768,-180 694,-180C685,-180 673,-181 657,-182l0,166C474,8 331,83 228,208C125,333 74,493 74,686C74,915 145,1101 287,1244C428,1387 612,1458 838,1458C978,1458 1096,1440 1192,1405l0,-311C1096,1151 987,1180 864,1180C729,1180 621,1138 538,1053C455,968 414,854 414,709C414,570 453,460 531,378C609,295 714,254 846,254C972,254 1087,285 1192,346z"
   id="glyph204" />
<glyph
   unicode="É"
   horiz-adv-x="1090"
   d="M1024,0l-860,0l0,1434l827,0l0,-263l-504,0l0,-319l469,0l0,-262l-469,0l0,-328l537,0M934,1890l-313,-323l-228,0l260,323z"
   id="glyph206" />
<glyph
   unicode="Ñ"
   horiz-adv-x="1618"
   d="M1454,0l-326,0l-591,901C502,954 478,993 465,1020l-4,0C466,969 469,892 469,788l0,-788l-305,0l0,1434l348,0l569,-873C1107,522 1131,483 1153,444l4,0C1152,477 1149,543 1149,641l0,793l305,0M1206,1878C1206,1785 1188,1713 1151,1662C1114,1611 1063,1585 999,1585C942,1585 886,1599 831,1628C772,1659 731,1675 708,1675C655,1675 628,1639 628,1567l-141,0C487,1660 505,1732 542,1783C579,1834 630,1860 696,1860C750,1860 806,1844 864,1811C917,1782 957,1767 984,1767C1036,1767 1062,1804 1062,1878z"
   id="glyph208" />
<glyph
   unicode="Ö"
   horiz-adv-x="1552"
   d="M770,-25C565,-25 397,42 268,176C139,309 74,483 74,698C74,925 140,1108 271,1248C402,1388 576,1458 793,1458C998,1458 1163,1391 1290,1257C1416,1123 1479,946 1479,727C1479,502 1414,320 1283,182C1152,44 981,-25 770,-25M784,1180C671,1180 581,1138 514,1053C447,968 414,855 414,715C414,573 447,461 514,378C581,295 668,254 776,254C887,254 976,294 1041,375C1106,455 1139,566 1139,709C1139,858 1107,973 1044,1056C981,1139 894,1180 784,1180M1004,1567C959,1567 923,1580 894,1606C865,1632 851,1665 851,1704C851,1745 865,1778 894,1803C923,1828 959,1841 1004,1841C1049,1841 1086,1828 1115,1803C1144,1777 1158,1744 1158,1704C1158,1664 1144,1631 1115,1606C1086,1580 1049,1567 1004,1567M546,1567C501,1567 464,1580 435,1607C406,1633 392,1665 392,1704C392,1744 407,1777 436,1803C465,1828 502,1841 546,1841C591,1841 628,1828 657,1803C685,1777 699,1744 699,1704C699,1663 685,1630 657,1605C628,1580 591,1567 546,1567z"
   id="glyph210" />
<glyph
   unicode="Ü"
   horiz-adv-x="1481"
   d="M1333,621C1333,190 1132,-25 731,-25C342,-25 147,185 147,606l0,828l324,0l0,-832C471,370 562,254 743,254C921,254 1010,366 1010,590l0,844l323,0M969,1567C924,1567 888,1580 859,1606C830,1632 816,1665 816,1704C816,1745 830,1778 859,1803C888,1828 924,1841 969,1841C1014,1841 1051,1828 1080,1803C1109,1777 1123,1744 1123,1704C1123,1664 1109,1631 1080,1606C1051,1580 1014,1567 969,1567M511,1567C466,1567 429,1580 400,1607C371,1633 357,1665 357,1704C357,1744 372,1777 401,1803C430,1828 467,1841 511,1841C556,1841 593,1828 622,1803C650,1777 664,1744 664,1704C664,1663 650,1630 622,1605C593,1580 556,1567 511,1567z"
   id="glyph212" />
<glyph
   unicode="á"
   horiz-adv-x="1102"
   d="M985,0l-299,0l0,147l-4,0C613,32 512,-25 377,-25C278,-25 200,3 143,60C86,116 57,191 57,285C57,484 175,598 410,629l278,37C688,778 627,834 506,834C384,834 268,798 158,725l0,238C202,986 262,1006 339,1023C415,1040 484,1049 547,1049C839,1049 985,903 985,612M688,416l0,69l-186,-24C399,448 348,401 348,322C348,286 361,257 386,234C411,211 444,199 487,199C546,199 595,220 632,261C669,302 688,353 688,416M891,1509l-313,-323l-228,0l260,323z"
   id="glyph214" />
<glyph
   unicode="à"
   horiz-adv-x="1102"
   d="M985,0l-299,0l0,147l-4,0C613,32 512,-25 377,-25C278,-25 200,3 143,60C86,116 57,191 57,285C57,484 175,598 410,629l278,37C688,778 627,834 506,834C384,834 268,798 158,725l0,238C202,986 262,1006 339,1023C415,1040 484,1049 547,1049C839,1049 985,903 985,612M688,416l0,69l-186,-24C399,448 348,401 348,322C348,286 361,257 386,234C411,211 444,199 487,199C546,199 595,220 632,261C669,302 688,353 688,416M775,1186l-227,0l-314,323l281,0z"
   id="glyph216" />
<glyph
   unicode="â"
   horiz-adv-x="1102"
   d="M985,0l-299,0l0,147l-4,0C613,32 512,-25 377,-25C278,-25 200,3 143,60C86,116 57,191 57,285C57,484 175,598 410,629l278,37C688,778 627,834 506,834C384,834 268,798 158,725l0,238C202,986 262,1006 339,1023C415,1040 484,1049 547,1049C839,1049 985,903 985,612M688,416l0,69l-186,-24C399,448 348,401 348,322C348,286 361,257 386,234C411,211 444,199 487,199C546,199 595,220 632,261C669,302 688,353 688,416M914,1186l-207,0l-158,188l-147,-188l-207,0l235,325l248,0z"
   id="glyph218" />
<glyph
   unicode="ä"
   horiz-adv-x="1102"
   d="M985,0l-299,0l0,147l-4,0C613,32 512,-25 377,-25C278,-25 200,3 143,60C86,116 57,191 57,285C57,484 175,598 410,629l278,37C688,778 627,834 506,834C384,834 268,798 158,725l0,238C202,986 262,1006 339,1023C415,1040 484,1049 547,1049C839,1049 985,903 985,612M688,416l0,69l-186,-24C399,448 348,401 348,322C348,286 361,257 386,234C411,211 444,199 487,199C546,199 595,220 632,261C669,302 688,353 688,416M787,1186C742,1186 706,1199 677,1225C648,1251 634,1284 634,1323C634,1364 648,1397 677,1422C706,1447 742,1460 787,1460C832,1460 869,1447 898,1422C927,1396 941,1363 941,1323C941,1283 927,1250 898,1225C869,1199 832,1186 787,1186M329,1186C284,1186 247,1199 218,1226C189,1252 175,1284 175,1323C175,1363 190,1396 219,1422C248,1447 285,1460 329,1460C374,1460 411,1447 440,1422C468,1396 482,1363 482,1323C482,1282 468,1249 440,1224C411,1199 374,1186 329,1186z"
   id="glyph220" />
<glyph
   unicode="ã"
   horiz-adv-x="1102"
   d="M985,0l-299,0l0,147l-4,0C613,32 512,-25 377,-25C278,-25 200,3 143,60C86,116 57,191 57,285C57,484 175,598 410,629l278,37C688,778 627,834 506,834C384,834 268,798 158,725l0,238C202,986 262,1006 339,1023C415,1040 484,1049 547,1049C839,1049 985,903 985,612M688,416l0,69l-186,-24C399,448 348,401 348,322C348,286 361,257 386,234C411,211 444,199 487,199C546,199 595,220 632,261C669,302 688,353 688,416M907,1497C907,1404 889,1332 852,1281C815,1230 764,1204 700,1204C643,1204 587,1218 532,1247C473,1278 432,1294 409,1294C356,1294 329,1258 329,1186l-141,0C188,1279 206,1351 243,1402C280,1453 331,1479 397,1479C451,1479 507,1463 565,1430C618,1401 658,1386 685,1386C737,1386 763,1423 763,1497z"
   id="glyph222" />
<glyph
   unicode="å"
   horiz-adv-x="1102"
   d="M985,0l-299,0l0,147l-4,0C613,32 512,-25 377,-25C278,-25 200,3 143,60C86,116 57,191 57,285C57,484 175,598 410,629l278,37C688,778 627,834 506,834C384,834 268,798 158,725l0,238C202,986 262,1006 339,1023C415,1040 484,1049 547,1049C839,1049 985,903 985,612M688,416l0,69l-186,-24C399,448 348,401 348,322C348,286 361,257 386,234C411,211 444,199 487,199C546,199 595,220 632,261C669,302 688,353 688,416M573,1186C505,1186 449,1206 405,1246C360,1285 338,1337 338,1401C338,1468 361,1522 408,1562C454,1602 511,1622 578,1622C649,1622 707,1602 751,1563C795,1523 817,1471 817,1407C817,1342 793,1289 746,1248C698,1207 640,1186 573,1186M573,1499C509,1499 477,1468 477,1405C477,1342 509,1311 573,1311C603,1311 628,1320 647,1339C666,1357 676,1379 676,1405C676,1432 667,1455 648,1473C629,1490 604,1499 573,1499z"
   id="glyph224" />
<glyph
   unicode="ç"
   horiz-adv-x="983"
   d="M909,37C845,0 757,-20 645,-25l0,-57C769,-87 831,-142 831,-248C831,-386 725,-455 514,-455C483,-455 454,-454 426,-451l0,138C449,-317 473,-319 498,-319C580,-319 621,-295 621,-246C621,-202 584,-180 510,-180C501,-180 489,-181 473,-182l0,170C350,13 253,70 181,161C108,251 72,360 72,487C72,661 124,798 229,899C333,999 472,1049 647,1049C768,1049 855,1033 909,1001l0,-268C843,782 769,807 688,807C597,807 526,781 473,728C420,675 393,601 393,508C393,417 418,346 469,295C520,243 589,217 678,217C757,217 834,242 909,291z"
   id="glyph226" />
<glyph
   unicode="é"
   horiz-adv-x="1108"
   d="M1053,422l-668,0C396,273 489,199 666,199C779,199 878,226 963,279l0,-228C868,0 745,-25 594,-25C429,-25 300,21 209,113C118,204 72,332 72,496C72,666 121,801 220,900C319,999 440,1049 584,1049C733,1049 849,1005 931,916C1012,827 1053,707 1053,555M760,616C760,763 701,836 582,836C531,836 488,815 451,773C414,731 391,679 383,616M921,1509l-313,-323l-228,0l260,323z"
   id="glyph228" />
<glyph
   unicode="è"
   horiz-adv-x="1108"
   d="M1053,422l-668,0C396,273 489,199 666,199C779,199 878,226 963,279l0,-228C868,0 745,-25 594,-25C429,-25 300,21 209,113C118,204 72,332 72,496C72,666 121,801 220,900C319,999 440,1049 584,1049C733,1049 849,1005 931,916C1012,827 1053,707 1053,555M760,616C760,763 701,836 582,836C531,836 488,815 451,773C414,731 391,679 383,616M795,1186l-227,0l-314,323l281,0z"
   id="glyph230" />
<glyph
   unicode="ê"
   horiz-adv-x="1108"
   d="M1053,422l-668,0C396,273 489,199 666,199C779,199 878,226 963,279l0,-228C868,0 745,-25 594,-25C429,-25 300,21 209,113C118,204 72,332 72,496C72,666 121,801 220,900C319,999 440,1049 584,1049C733,1049 849,1005 931,916C1012,827 1053,707 1053,555M760,616C760,763 701,836 582,836C531,836 488,815 451,773C414,731 391,679 383,616M949,1186l-207,0l-158,188l-147,-188l-207,0l235,325l248,0z"
   id="glyph232" />
<glyph
   unicode="ë"
   horiz-adv-x="1108"
   d="M1053,422l-668,0C396,273 489,199 666,199C779,199 878,226 963,279l0,-228C868,0 745,-25 594,-25C429,-25 300,21 209,113C118,204 72,332 72,496C72,666 121,801 220,900C319,999 440,1049 584,1049C733,1049 849,1005 931,916C1012,827 1053,707 1053,555M760,616C760,763 701,836 582,836C531,836 488,815 451,773C414,731 391,679 383,616M808,1186C763,1186 727,1199 698,1225C669,1251 655,1284 655,1323C655,1364 669,1397 698,1422C727,1447 763,1460 808,1460C853,1460 890,1447 919,1422C948,1396 962,1363 962,1323C962,1283 948,1250 919,1225C890,1199 853,1186 808,1186M350,1186C305,1186 268,1199 239,1226C210,1252 196,1284 196,1323C196,1363 211,1396 240,1422C269,1447 306,1460 350,1460C395,1460 432,1447 461,1422C489,1396 503,1363 503,1323C503,1282 489,1249 461,1224C432,1199 395,1186 350,1186z"
   id="glyph234" />
<glyph
   unicode="í"
   horiz-adv-x="582"
   d="M449,0l-316,0l0,1024l316,0M612,1509l-313,-323l-228,0l260,323z"
   id="glyph236" />
<glyph
   unicode="ì"
   horiz-adv-x="582"
   d="M449,0l-316,0l0,1024l316,0M514,1186l-227,0l-314,323l281,0z"
   id="glyph238" />
<glyph
   unicode="î"
   horiz-adv-x="582"
   d="M449,0l-316,0l0,1024l316,0M657,1186l-207,0l-158,188l-147,-188l-207,0l235,325l248,0z"
   id="glyph240" />
<glyph
   unicode="ï"
   horiz-adv-x="582"
   d="M449,0l-316,0l0,1024l316,0M526,1186C481,1186 445,1199 416,1225C387,1251 373,1284 373,1323C373,1364 387,1397 416,1422C445,1447 481,1460 526,1460C571,1460 608,1447 637,1422C666,1396 680,1363 680,1323C680,1283 666,1250 637,1225C608,1199 571,1186 526,1186M68,1186C23,1186 -14,1199 -43,1226C-72,1252 -86,1284 -86,1323C-86,1363 -71,1396 -42,1422C-13,1447 24,1460 68,1460C113,1460 150,1447 179,1422C207,1396 221,1363 221,1323C221,1282 207,1249 179,1224C150,1199 113,1186 68,1186z"
   id="glyph242" />
<glyph
   unicode="ñ"
   horiz-adv-x="1239"
   d="M1122,0l-315,0l0,569C807,728 750,807 637,807C582,807 537,786 502,744C467,702 449,649 449,584l0,-584l-316,0l0,1024l316,0l0,-162l4,0C528,987 638,1049 782,1049C1009,1049 1122,908 1122,627M982,1497C982,1404 964,1332 927,1281C890,1230 839,1204 775,1204C718,1204 662,1218 607,1247C548,1278 507,1294 484,1294C431,1294 404,1258 404,1186l-141,0C263,1279 281,1351 318,1402C355,1453 406,1479 472,1479C526,1479 582,1463 640,1430C693,1401 733,1386 760,1386C812,1386 838,1423 838,1497z"
   id="glyph244" />
<glyph
   unicode="ó"
   horiz-adv-x="1251"
   d="M621,-25C450,-25 316,23 219,119C121,214 72,344 72,508C72,677 123,810 224,906C325,1001 462,1049 635,1049C805,1049 938,1001 1035,906C1132,810 1180,683 1180,526C1180,356 1130,222 1031,123C931,24 794,-25 621,-25M629,807C554,807 496,781 455,730C414,679 393,606 393,512C393,315 472,217 631,217C782,217 858,318 858,520C858,711 782,807 629,807M968,1509l-313,-323l-228,0l260,323z"
   id="glyph246" />
<glyph
   unicode="ò"
   horiz-adv-x="1251"
   d="M621,-25C450,-25 316,23 219,119C121,214 72,344 72,508C72,677 123,810 224,906C325,1001 462,1049 635,1049C805,1049 938,1001 1035,906C1132,810 1180,683 1180,526C1180,356 1130,222 1031,123C931,24 794,-25 621,-25M629,807C554,807 496,781 455,730C414,679 393,606 393,512C393,315 472,217 631,217C782,217 858,318 858,520C858,711 782,807 629,807M852,1186l-227,0l-314,323l281,0z"
   id="glyph248" />
<glyph
   unicode="ô"
   horiz-adv-x="1251"
   d="M621,-25C450,-25 316,23 219,119C121,214 72,344 72,508C72,677 123,810 224,906C325,1001 462,1049 635,1049C805,1049 938,1001 1035,906C1132,810 1180,683 1180,526C1180,356 1130,222 1031,123C931,24 794,-25 621,-25M629,807C554,807 496,781 455,730C414,679 393,606 393,512C393,315 472,217 631,217C782,217 858,318 858,520C858,711 782,807 629,807M988,1186l-207,0l-158,188l-147,-188l-207,0l235,325l248,0z"
   id="glyph250" />
<glyph
   unicode="ö"
   horiz-adv-x="1251"
   d="M621,-25C450,-25 316,23 219,119C121,214 72,344 72,508C72,677 123,810 224,906C325,1001 462,1049 635,1049C805,1049 938,1001 1035,906C1132,810 1180,683 1180,526C1180,356 1130,222 1031,123C931,24 794,-25 621,-25M629,807C554,807 496,781 455,730C414,679 393,606 393,512C393,315 472,217 631,217C782,217 858,318 858,520C858,711 782,807 629,807M859,1186C814,1186 778,1199 749,1225C720,1251 706,1284 706,1323C706,1364 720,1397 749,1422C778,1447 814,1460 859,1460C904,1460 941,1447 970,1422C999,1396 1013,1363 1013,1323C1013,1283 999,1250 970,1225C941,1199 904,1186 859,1186M401,1186C356,1186 319,1199 290,1226C261,1252 247,1284 247,1323C247,1363 262,1396 291,1422C320,1447 357,1460 401,1460C446,1460 483,1447 512,1422C540,1396 554,1363 554,1323C554,1282 540,1249 512,1224C483,1199 446,1186 401,1186z"
   id="glyph252" />
<glyph
   unicode="õ"
   horiz-adv-x="1251"
   d="M621,-25C450,-25 316,23 219,119C121,214 72,344 72,508C72,677 123,810 224,906C325,1001 462,1049 635,1049C805,1049 938,1001 1035,906C1132,810 1180,683 1180,526C1180,356 1130,222 1031,123C931,24 794,-25 621,-25M629,807C554,807 496,781 455,730C414,679 393,606 393,512C393,315 472,217 631,217C782,217 858,318 858,520C858,711 782,807 629,807M985,1497C985,1404 967,1332 930,1281C893,1230 842,1204 778,1204C721,1204 665,1218 610,1247C551,1278 510,1294 487,1294C434,1294 407,1258 407,1186l-141,0C266,1279 284,1351 321,1402C358,1453 409,1479 475,1479C529,1479 585,1463 643,1430C696,1401 736,1386 763,1386C815,1386 841,1423 841,1497z"
   id="glyph254" />
<glyph
   unicode="ú"
   horiz-adv-x="1239"
   d="M1106,0l-315,0l0,156l-5,0C708,35 604,-25 473,-25C236,-25 117,119 117,406l0,618l315,0l0,-590C432,289 489,217 604,217C661,217 706,237 740,277C774,316 791,370 791,438l0,586l315,0M977,1509l-313,-323l-228,0l260,323z"
   id="glyph256" />
<glyph
   unicode="ù"
   horiz-adv-x="1239"
   d="M1106,0l-315,0l0,156l-5,0C708,35 604,-25 473,-25C236,-25 117,119 117,406l0,618l315,0l0,-590C432,289 489,217 604,217C661,217 706,237 740,277C774,316 791,370 791,438l0,586l315,0M784,1186l-227,0l-314,323l281,0z"
   id="glyph258" />
<glyph
   unicode="û"
   horiz-adv-x="1239"
   d="M1106,0l-315,0l0,156l-5,0C708,35 604,-25 473,-25C236,-25 117,119 117,406l0,618l315,0l0,-590C432,289 489,217 604,217C661,217 706,237 740,277C774,316 791,370 791,438l0,586l315,0M970,1186l-207,0l-158,188l-147,-188l-207,0l235,325l248,0z"
   id="glyph260" />
<glyph
   unicode="ü"
   horiz-adv-x="1239"
   d="M1106,0l-315,0l0,156l-5,0C708,35 604,-25 473,-25C236,-25 117,119 117,406l0,618l315,0l0,-590C432,289 489,217 604,217C661,217 706,237 740,277C774,316 791,370 791,438l0,586l315,0M844,1186C799,1186 763,1199 734,1225C705,1251 691,1284 691,1323C691,1364 705,1397 734,1422C763,1447 799,1460 844,1460C889,1460 926,1447 955,1422C984,1396 998,1363 998,1323C998,1283 984,1250 955,1225C926,1199 889,1186 844,1186M386,1186C341,1186 304,1199 275,1226C246,1252 232,1284 232,1323C232,1363 247,1396 276,1422C305,1447 342,1460 386,1460C431,1460 468,1447 497,1422C525,1396 539,1363 539,1323C539,1282 525,1249 497,1224C468,1199 431,1186 386,1186z"
   id="glyph262" />
<glyph
   unicode="†"
   horiz-adv-x="832"
   d="M766,948l-248,0l0,-706l-209,0l0,706l-248,0l0,176l248,0l0,310l209,0l0,-310l248,0z"
   id="glyph264" />
<glyph
   unicode="°"
   horiz-adv-x="778"
   d="M399,895C320,895 253,923 198,978C143,1033 115,1099 115,1178C115,1257 143,1323 198,1377C253,1431 320,1458 399,1458C478,1458 545,1431 601,1377C656,1323 684,1257 684,1178C684,1099 656,1033 601,978C545,923 478,895 399,895M399,1307C363,1307 333,1295 308,1270C283,1245 270,1214 270,1178C270,1142 283,1111 308,1086C333,1060 363,1047 399,1047C434,1047 465,1060 490,1086C515,1111 528,1142 528,1178C528,1214 516,1245 491,1270C466,1295 435,1307 399,1307z"
   id="glyph266" />
<glyph
   unicode="¢"
   horiz-adv-x="1178"
   d="M1004,207C955,179 895,161 823,152l0,-189l-161,0l0,184C518,155 400,206 308,299C216,392 170,511 170,657C170,813 215,940 304,1039C393,1137 513,1194 662,1210l0,211l161,0l0,-207C896,1210 957,1195 1004,1169l0,-272C953,936 893,959 823,967l0,-574C895,404 955,427 1004,461M662,399l0,559C532,919 467,825 467,678C467,530 532,437 662,399z"
   id="glyph268" />
<glyph
   unicode="£"
   horiz-adv-x="1178"
   d="M1114,0l-971,0l0,227C272,262 336,351 336,496l0,116l-172,0l0,217l172,0l0,187C336,1148 377,1255 458,1336C539,1417 649,1458 788,1458C873,1458 951,1442 1022,1409l0,-258C957,1195 887,1217 813,1217C690,1217 629,1140 629,987l0,-158l268,0l0,-217l-268,0l0,-86C629,403 578,309 477,242l637,0z"
   id="glyph270" />
<glyph
   unicode="§"
   horiz-adv-x="994"
   d="M752,434C807,384 834,326 834,260C834,161 798,82 726,23C653,-36 558,-66 440,-66C331,-66 235,-43 150,2l0,248C270,180 374,145 461,145C546,145 588,178 588,244C588,285 556,321 492,352C398,395 328,433 282,465C236,496 199,535 172,581C145,627 131,677 131,731C131,826 173,904 256,965C197,1024 168,1095 168,1180C168,1273 202,1349 271,1406C339,1463 430,1491 545,1491C638,1491 724,1473 805,1436l0,-250C712,1250 626,1282 545,1282C463,1282 422,1251 422,1188C422,1158 436,1132 463,1111C490,1089 551,1057 647,1014C816,939 901,836 901,705C901,594 851,503 752,434M432,864C389,839 367,802 367,754C367,716 384,682 418,652C452,622 511,589 596,553C640,582 662,623 662,676C662,717 644,751 609,777C573,802 514,831 432,864z"
   id="glyph272" />
<glyph
   unicode="•"
   horiz-adv-x="865"
   d="M434,281C359,281 294,308 241,362C187,416 160,481 160,557C160,633 187,698 240,751C293,804 358,831 434,831C510,831 575,804 630,751C684,697 711,632 711,557C711,482 684,417 630,363C575,308 510,281 434,281z"
   id="glyph274" />
<glyph
   unicode="¶"
   horiz-adv-x="1043"
   d="M946,1272l-117,0l0,-1272l-174,0l0,1272l-118,0l0,-1272l-177,0l0,836C283,841 220,871 169,928C118,985 92,1055 92,1139C92,1225 121,1296 178,1351C235,1406 305,1434 389,1434l557,0z"
   id="glyph276" />
<glyph
   unicode="ß"
   horiz-adv-x="1286"
   d="M545,8l0,262C600,235 659,217 721,217C776,217 821,235 854,270C887,305 903,353 903,414C903,491 873,553 814,598C755,643 671,667 563,670l0,221C637,896 695,919 736,959C777,999 797,1052 797,1118C797,1174 782,1218 753,1250C723,1282 683,1298 633,1298C510,1298 449,1216 449,1053l0,-1053l-316,0l0,1049C133,1198 179,1317 270,1406C361,1495 488,1540 651,1540C796,1540 910,1504 994,1431C1078,1358 1120,1264 1120,1149C1120,1068 1096,996 1049,935C1001,874 939,832 864,809l0,-4C1106,759 1227,626 1227,406C1227,286 1185,184 1101,101C1016,17 902,-25 758,-25C688,-25 617,-14 545,8z"
   id="glyph278" />
<glyph
   unicode="­"
   horiz-adv-x="819"
   d="M690,506l-547,0l0,129l547,0z"
   id="glyph280" />
<glyph
   unicode="®"
   horiz-adv-x="1790"
   d="M893,-25C671,-25 489,44 346,182C203,320 131,497 131,713C131,924 205,1101 352,1244C499,1387 682,1458 901,1458C1120,1458 1301,1389 1445,1250C1589,1111 1661,933 1661,717C1661,506 1587,329 1440,188C1292,46 1110,-25 893,-25M897,1346C714,1346 562,1286 443,1166C324,1046 264,896 264,717C264,536 325,386 446,267C567,148 717,88 897,88C1074,88 1223,148 1345,268C1467,387 1528,536 1528,715C1528,896 1468,1047 1348,1167C1228,1286 1078,1346 897,1346M1288,264l-254,0l-76,232C931,577 895,618 848,618l-74,0l0,-354l-211,0l0,922l320,0C1130,1186 1253,1099 1253,924C1253,798 1181,717 1036,680l0,-4C1096,663 1143,614 1178,530M774,1010l0,-230l111,0C978,780 1024,820 1024,899C1024,973 971,1010 864,1010z"
   id="glyph282" />
<glyph
   unicode="©"
   horiz-adv-x="1790"
   d="M893,-25C671,-25 489,44 346,182C203,320 131,497 131,713C131,924 205,1101 352,1244C499,1387 682,1458 901,1458C1120,1458 1301,1389 1445,1250C1589,1111 1661,933 1661,717C1661,506 1587,329 1440,188C1292,46 1110,-25 893,-25M897,1346C714,1346 562,1286 443,1166C324,1046 264,896 264,717C264,536 325,386 446,267C567,148 717,88 897,88C1074,88 1223,148 1345,268C1467,387 1528,536 1528,715C1528,896 1468,1047 1348,1167C1228,1286 1078,1346 897,1346M1204,295C1121,250 1029,227 930,227C791,227 675,272 584,361C492,450 446,562 446,696C446,850 494,974 590,1067C685,1160 810,1206 963,1206C1046,1206 1126,1188 1202,1151l0,-236C1137,966 1055,991 958,991C881,991 817,966 766,915C714,864 688,795 688,709C688,628 714,562 767,512C819,461 885,436 965,436C1059,436 1139,461 1204,512z"
   id="glyph284" />
<glyph
   unicode="™"
   horiz-adv-x="1579"
   d="M1395,772l-150,0l0,445l-4,0l-160,-445l-135,0l-145,445l-6,0l0,-445l-148,0l0,662l217,0l156,-453l4,0l168,453l203,0M582,1311l-179,0l0,-539l-155,0l0,539l-172,0l0,123l506,0z"
   id="glyph286" />
<glyph
   unicode="´"
   horiz-adv-x="621"
   d="M596,1509l-313,-323l-228,0l260,323z"
   id="glyph288" />
<glyph
   unicode="¨"
   horiz-adv-x="946"
   d="M698,1186C653,1186 617,1199 588,1225C559,1251 545,1284 545,1323C545,1364 559,1397 588,1422C617,1447 653,1460 698,1460C743,1460 780,1447 809,1422C838,1396 852,1363 852,1323C852,1283 838,1250 809,1225C780,1199 743,1186 698,1186M240,1186C195,1186 158,1199 129,1226C100,1252 86,1284 86,1323C86,1363 101,1396 130,1422C159,1447 196,1460 240,1460C285,1460 322,1447 351,1422C379,1396 393,1363 393,1323C393,1282 379,1249 351,1224C322,1199 285,1186 240,1186z"
   id="glyph290" />
<glyph
   unicode="≠"
   horiz-adv-x="1450"
   d="M1212,266l-536,0l-139,-266l-244,0l139,266l-194,0l0,203l301,0l120,231l-421,0l0,205l528,0l145,283l244,0l-145,-283l202,0l0,-205l-309,0l-121,-231l430,0z"
   id="glyph292" />
<glyph
   unicode="Æ"
   horiz-adv-x="1915"
   d="M1849,0l-858,0l0,319l-471,0l-147,-319l-375,0l725,1434l1094,0l0,-263l-504,0l0,-319l469,0l0,-262l-469,0l0,-328l536,0M991,567l0,604l-78,0l-282,-604z"
   id="glyph294" />
<glyph
   unicode="Ø"
   horiz-adv-x="1553"
   d="M348,109l-143,-170l-125,104l149,176C126,347 74,507 74,698C74,925 140,1108 271,1248C402,1388 576,1458 793,1458C949,1458 1083,1418 1194,1339l129,150l125,-103l-135,-157C1424,1098 1479,931 1479,727C1479,502 1414,320 1283,182C1152,44 981,-25 770,-25C610,-25 469,20 348,109M1016,1130C951,1181 874,1206 784,1206C663,1206 568,1161 497,1070C426,979 391,858 391,709C391,612 407,528 438,457M1110,995l-578,-676C599,258 681,227 776,227C893,227 986,270 1057,356C1128,441 1163,558 1163,707C1163,816 1145,912 1110,995z"
   id="glyph296" />
<glyph
   unicode="∞"
   horiz-adv-x="1664"
   d="M834,438C732,276 606,195 455,195C342,195 249,232 178,307C106,381 70,478 70,598C70,708 107,802 181,879C255,956 346,995 455,995C612,995 739,911 834,743C935,904 1062,985 1214,985C1328,985 1421,948 1492,874C1563,800 1599,703 1599,584C1599,474 1562,380 1487,303C1412,225 1321,186 1212,186C1058,186 932,270 834,438M729,596C657,724 575,788 483,788C429,788 385,770 351,734C316,697 299,651 299,596C299,541 316,495 351,460C385,424 430,406 485,406C576,406 657,469 729,596M940,586C1012,459 1094,395 1186,395C1239,395 1283,413 1317,449C1351,485 1368,531 1368,586C1368,642 1351,688 1317,724C1282,760 1238,778 1184,778C1095,778 1013,714 940,586z"
   id="glyph298" />
<glyph
   unicode="±"
   horiz-adv-x="1448"
   d="M1212,694l-385,0l0,-387l-202,0l0,387l-383,0l0,203l383,0l0,391l202,0l0,-391l385,0M1210,0l-972,0l0,203l972,0z"
   id="glyph300" />
<glyph
   unicode="≤"
   horiz-adv-x="1450"
   d="M1194,248l-936,399l0,174l936,418l0,-238l-668,-264l0,-4l668,-248M1210,0l-972,0l0,203l972,0z"
   id="glyph302" />
<glyph
   unicode="≥"
   horiz-adv-x="1450"
   d="M1194,647l-936,-399l0,237l668,246l0,4l-668,266l0,238l936,-418M1210,0l-972,0l0,203l972,0z"
   id="glyph304" />
<glyph
   unicode="¥"
   horiz-adv-x="1178"
   d="M1157,1434l-354,-641l252,0l0,-189l-305,0l0,-153l305,0l0,-189l-305,0l0,-262l-308,0l0,262l-315,0l0,189l315,0l0,153l-315,0l0,189l256,0l-342,641l321,0l246,-570l4,0C615,871 627,901 649,954l203,480z"
   id="glyph306" />
<glyph
   unicode="µ"
   horiz-adv-x="1255"
   d="M1161,0l-324,0C820,47 812,98 812,154l-4,0C770,36 698,-23 592,-23C527,-23 481,-2 452,41l-3,0l0,-436l-316,0l0,1419l316,0l0,-589C449,297 506,228 619,228C742,228 803,313 803,482l0,542l319,0l0,-710C1122,157 1135,52 1161,0z"
   id="glyph308" />
<glyph
   unicode="∂"
   horiz-adv-x="1183"
   d="M819,879l4,0C824,900 825,913 825,918C825,1146 744,1260 582,1260C493,1260 403,1237 313,1190l64,250C468,1481 563,1501 662,1501C987,1501 1149,1308 1149,922C1149,777 1124,627 1075,470C1026,313 950,192 847,105C744,18 620,-25 475,-25C341,-25 236,13 160,88C83,163 45,266 45,397C45,566 93,712 190,835C287,958 411,1020 563,1020C676,1020 761,973 819,879M786,645C761,748 708,799 629,799C556,799 495,759 444,678C393,597 367,507 367,408C367,281 415,217 510,217C578,217 637,257 688,337C739,416 771,519 786,645z"
   id="glyph310" />
<glyph
   unicode="∑"
   horiz-adv-x="1316"
   d="M1270,-469l-1217,0l0,176l604,785l-579,757l0,185l1159,0l0,-263l-707,0l500,-671l-528,-707l768,0z"
   id="glyph312" />
<glyph
   unicode="∏"
   horiz-adv-x="1620"
   d="M1475,-471l-324,0l0,1626l-664,0l0,-1626l-323,0l0,1905l1311,0z"
   id="glyph314" />
<glyph
   unicode="∫"
   horiz-adv-x="1180"
   d="M1016,1274C975,1290 936,1298 899,1298C798,1298 748,1243 748,1133l0,-1231C748,-215 710,-310 635,-381C559,-453 456,-489 326,-489C263,-489 209,-482 166,-469l0,246C209,-240 248,-248 281,-248C382,-248 432,-193 432,-82l0,1233C432,1268 470,1362 546,1433C622,1504 725,1540 856,1540C920,1540 973,1533 1016,1520z"
   id="glyph316" />
<glyph
   unicode="ª"
   horiz-adv-x="840"
   d="M739,717l-213,0l0,86l-4,0C464,732 391,696 303,696C236,696 180,716 137,757C94,798 72,850 72,915C72,1056 159,1137 334,1159l192,25C526,1260 480,1298 387,1298C308,1298 226,1272 141,1221l0,176C224,1435 319,1454 428,1454C635,1454 739,1354 739,1155M526,985l0,70l-123,-17C326,1027 287,995 287,942C287,883 322,854 391,854C427,854 459,867 486,893C513,918 526,949 526,985z"
   id="glyph318" />
<glyph
   unicode="º"
   horiz-adv-x="934"
   d="M459,696C336,696 240,729 172,796C104,862 70,954 70,1073C70,1192 106,1286 179,1353C251,1420 348,1454 471,1454C592,1454 686,1420 755,1353C824,1285 858,1196 858,1087C858,964 823,869 752,800C681,731 583,696 459,696M465,1280C356,1280 301,1212 301,1077C301,939 356,870 465,870C572,870 625,940 625,1079C625,1213 572,1280 465,1280z"
   id="glyph320" />
<glyph
   unicode="Ω"
   horiz-adv-x="1568"
   d="M1137,260l347,0l0,-260l-601,0l0,260C1058,411 1146,586 1146,785C1146,905 1112,1001 1044,1073C976,1145 891,1181 789,1181C683,1181 596,1145 527,1074C458,1002 424,902 424,775C424,588 510,417 683,260l0,-260l-601,0l0,260l340,0C197,391 84,580 84,829C84,1019 149,1171 280,1286C410,1401 578,1458 783,1458C994,1458 1163,1400 1292,1285C1421,1169 1485,1018 1485,833C1485,580 1369,389 1137,260z"
   id="glyph322" />
<glyph
   unicode="æ"
   horiz-adv-x="1696"
   d="M1640,422l-667,0C986,273 1080,199 1255,199C1362,199 1461,226 1552,279l0,-226C1448,1 1322,-25 1174,-25C995,-25 862,35 776,154l-4,0C678,35 557,-25 410,-25C299,-25 213,3 151,58C88,113 57,189 57,287C57,384 89,462 154,521C218,580 310,614 430,623l256,20C686,770 625,834 502,834C386,834 271,798 158,727l0,236C283,1020 406,1049 528,1049C684,1049 792,1004 852,915l4,0C944,1004 1053,1049 1182,1049C1325,1049 1437,1005 1518,916C1599,827 1640,706 1640,551M1348,616C1348,763 1289,836 1171,836C1121,836 1077,815 1040,774C1002,733 980,680 973,616M686,414l0,45l-156,-13C407,436 346,392 346,315C346,282 359,254 385,232C411,210 445,199 487,199C544,199 592,219 630,259C667,298 686,350 686,414z"
   id="glyph324" />
<glyph
   unicode="ø"
   horiz-adv-x="1252"
   d="M1206,1010l-139,-146C1142,769 1180,656 1180,526C1180,353 1131,219 1032,122C933,25 796,-23 621,-23C489,-23 380,6 293,63l-135,-141l-119,107l137,143C107,266 72,379 72,510C72,679 123,811 225,907C326,1003 464,1051 637,1051C756,1051 860,1024 948,969l139,147M772,791C735,818 688,831 631,831C459,831 373,725 373,514C373,465 379,425 391,393M862,651l-393,-409C510,212 563,197 629,197C797,197 881,305 881,520C881,569 875,613 862,651z"
   id="glyph326" />
<glyph
   unicode="¿"
   horiz-adv-x="897"
   d="M510,721C456,721 412,736 378,767C343,797 326,836 326,883C326,931 343,971 378,1002C412,1033 456,1049 510,1049C563,1049 607,1033 642,1001C677,968 694,929 694,883C694,835 677,796 642,766C607,736 563,721 510,721M825,-340C723,-401 608,-432 479,-432C336,-432 225,-400 148,-335C70,-270 31,-182 31,-70C31,69 101,195 240,309C293,352 331,390 353,421C374,452 385,493 385,543l0,55l260,0l0,-84C645,392 597,291 502,211C435,155 393,111 374,79C355,47 346,12 346,-27C346,-68 361,-102 392,-129C423,-156 463,-170 512,-170C623,-170 727,-126 825,-39z"
   id="glyph328" />
<glyph
   unicode=" "
   horiz-adv-x="565"
   id="glyph330" />
<glyph
   unicode="¡"
   horiz-adv-x="670"
   d="M336,721C282,721 238,736 204,767C169,798 152,836 152,883C152,931 169,971 204,1002C238,1033 282,1049 336,1049C389,1049 432,1033 467,1001C501,969 518,930 518,883C518,835 501,796 467,766C432,736 389,721 336,721M504,-408l-332,0l37,990l256,0z"
   id="glyph332" />
<glyph
   unicode="¬"
   horiz-adv-x="1448"
   d="M1212,266l-202,0l0,389l-772,0l0,203l974,0z"
   id="glyph334" />
<glyph
   unicode="√"
   horiz-adv-x="1331"
   d="M1196,1516l-408,-1516l-196,0l-320,729l-182,0l0,168l350,0l242,-567l317,1186z"
   id="glyph336" />
<glyph
   unicode="ƒ"
   horiz-adv-x="1178"
   d="M1044,1174C1001,1194 957,1204 911,1204C828,1204 779,1158 764,1067l-23,-137l158,0l0,-215l-192,0l-91,-594C596,-10 549,-113 476,-190C403,-267 310,-305 199,-305C166,-305 125,-298 78,-285l0,242C104,-56 135,-63 170,-63C252,-63 303,4 324,139l88,576l-105,0l0,215l142,0l22,149C488,1190 533,1279 606,1346C679,1413 772,1446 885,1446C940,1446 993,1438 1044,1423z"
   id="glyph338" />
<glyph
   unicode="≈"
   horiz-adv-x="1450"
   d="M1255,997C1251,885 1221,796 1166,731C1110,666 1035,633 942,633C872,633 786,662 684,721C611,763 559,784 528,784C446,784 403,732 399,627l-204,0C199,740 229,828 284,893C339,957 414,989 510,989C586,989 666,964 750,913C833,863 893,838 930,838C965,838 994,853 1016,882C1038,911 1050,949 1051,997M1255,549C1251,437 1221,348 1166,283C1110,217 1035,184 942,184C874,184 788,214 684,274C611,317 559,338 528,338C446,338 403,284 399,176l-204,0C199,289 229,379 284,445C339,510 414,543 510,543C586,543 666,518 750,467C837,415 897,389 930,389C965,389 994,404 1016,433C1038,462 1050,501 1051,549z"
   id="glyph340" />
<glyph
   unicode="∆"
   horiz-adv-x="1440"
   d="M1379,0l-1343,0l0,125l486,1309l382,0l475,-1309M994,262l-253,764C722,1083 711,1130 707,1169l-8,0C694,1126 684,1079 667,1028l-255,-766z"
   id="glyph342" />
<glyph
   unicode="«"
   horiz-adv-x="1190"
   d="M1137,201l-269,0l-327,336l327,344l269,0l-334,-344M651,201l-268,0l-330,336l330,344l266,0l-334,-344z"
   id="glyph344" />
<glyph
   unicode="»"
   horiz-adv-x="1190"
   d="M1137,537l-328,-336l-268,0l333,336l-331,344l266,0M651,537l-329,-336l-269,0l336,336l-334,344l267,0z"
   id="glyph346" />
<glyph
   unicode="…"
   horiz-adv-x="1868"
   d="M1554,-23C1502,-23 1459,-7 1424,25C1389,57 1372,96 1372,143C1372,191 1390,230 1425,261C1460,292 1503,307 1556,307C1610,307 1654,292 1689,261C1724,230 1741,190 1741,143C1741,94 1724,55 1690,24C1655,-7 1610,-23 1554,-23M932,-23C880,-23 837,-7 803,25C769,57 752,96 752,143C752,191 769,230 804,261C838,292 881,307 934,307C988,307 1032,292 1067,261C1101,230 1118,190 1118,143C1118,94 1101,55 1067,24C1032,-7 987,-23 932,-23M309,-23C257,-23 214,-7 180,25C146,57 129,96 129,143C129,191 146,230 181,261C215,292 258,307 311,307C365,307 409,292 444,261C479,230 496,190 496,143C496,94 479,55 445,24C410,-7 365,-23 309,-23z"
   id="glyph348" />
<glyph
   unicode="À"
   horiz-adv-x="1440"
   d="M1425,0l-352,0l-102,319l-510,0l-101,-319l-350,0l522,1434l383,0M897,567l-154,482C732,1085 724,1128 719,1178l-8,0C708,1136 699,1094 686,1053l-156,-486M916,1567l-227,0l-314,323l281,0z"
   id="glyph350" />
<glyph
   unicode="Ã"
   horiz-adv-x="1440"
   d="M1425,0l-352,0l-102,319l-510,0l-101,-319l-350,0l522,1434l383,0M897,567l-154,482C732,1085 724,1128 719,1178l-8,0C708,1136 699,1094 686,1053l-156,-486M1077,1878C1077,1785 1059,1713 1022,1662C985,1611 934,1585 870,1585C813,1585 757,1599 702,1628C643,1659 602,1675 579,1675C526,1675 499,1639 499,1567l-141,0C358,1660 376,1732 413,1783C450,1834 501,1860 567,1860C621,1860 677,1844 735,1811C788,1782 828,1767 855,1767C907,1767 933,1804 933,1878z"
   id="glyph352" />
<glyph
   unicode="Õ"
   horiz-adv-x="1552"
   d="M770,-25C565,-25 397,42 268,176C139,309 74,483 74,698C74,925 140,1108 271,1248C402,1388 576,1458 793,1458C998,1458 1163,1391 1290,1257C1416,1123 1479,946 1479,727C1479,502 1414,320 1283,182C1152,44 981,-25 770,-25M784,1180C671,1180 581,1138 514,1053C447,968 414,855 414,715C414,573 447,461 514,378C581,295 668,254 776,254C887,254 976,294 1041,375C1106,455 1139,566 1139,709C1139,858 1107,973 1044,1056C981,1139 894,1180 784,1180M1147,1878C1147,1785 1129,1713 1092,1662C1055,1611 1004,1585 940,1585C883,1585 827,1599 772,1628C713,1659 672,1675 649,1675C596,1675 569,1639 569,1567l-141,0C428,1660 446,1732 483,1783C520,1834 571,1860 637,1860C691,1860 747,1844 805,1811C858,1782 898,1767 925,1767C977,1767 1003,1804 1003,1878z"
   id="glyph354" />
<glyph
   unicode="Œ"
   horiz-adv-x="1925"
   d="M1860,0l-828,0C1015,0 976,-4 915,-12C855,-21 803,-25 758,-25C553,-25 388,43 263,178C137,313 74,487 74,698C74,926 139,1110 268,1249C397,1388 569,1458 784,1458C826,1458 876,1454 935,1446C994,1438 1031,1434 1044,1434l783,0l0,-263l-504,0l0,-323l469,0l0,-264l-469,0l0,-322l537,0M991,305l0,823C934,1163 864,1180 782,1180C670,1180 581,1137 515,1051C449,964 416,851 416,711C416,572 450,462 517,379C584,296 671,254 778,254C855,254 926,271 991,305z"
   id="glyph356" />
<glyph
   unicode="œ"
   horiz-adv-x="1893"
   d="M1837,422l-670,0C1176,273 1271,199 1450,199C1561,199 1660,226 1745,279l0,-228C1650,0 1535,-25 1399,-25C1231,-25 1101,38 1008,164l-4,0C913,39 777,-23 596,-23C440,-23 314,25 217,120C120,215 72,345 72,508C72,675 121,808 219,905C317,1002 447,1051 608,1051C697,1051 777,1035 847,1002C916,969 968,926 1001,874l5,0C1085,991 1210,1049 1382,1049C1524,1049 1635,1004 1716,915C1797,826 1837,706 1837,557M1542,616C1542,763 1484,836 1368,836C1315,836 1270,815 1233,773C1196,730 1174,678 1167,616M631,807C556,807 497,781 456,730C414,678 393,605 393,512C393,317 472,219 629,219C782,219 858,318 858,516C858,608 838,680 799,731C759,782 703,807 631,807z"
   id="glyph358" />
<glyph
   unicode="–"
   horiz-adv-x="1024"
   d="M1024,436l-1024,0l0,221l1024,0z"
   id="glyph360" />
<glyph
   unicode="—"
   horiz-adv-x="2048"
   d="M2048,436l-2048,0l0,221l2048,0z"
   id="glyph362" />
<glyph
   unicode="“"
   horiz-adv-x="1010"
   d="M897,1468l-113,-444l-272,0l190,444M481,1468l-110,-444l-275,0l189,444z"
   id="glyph364" />
<glyph
   unicode="”"
   horiz-adv-x="1010"
   d="M915,1468l-190,-444l-197,0l113,444M500,1468l-193,-444l-194,0l114,444z"
   id="glyph366" />
<glyph
   unicode="‘"
   horiz-adv-x="594"
   d="M481,1468l-110,-444l-275,0l189,444z"
   id="glyph368" />
<glyph
   unicode="’"
   horiz-adv-x="594"
   d="M500,1468l-193,-444l-194,0l114,444z"
   id="glyph370" />
<glyph
   unicode="÷"
   horiz-adv-x="1448"
   d="M731,846C692,846 658,859 631,886C604,913 590,945 590,983C590,1024 603,1059 630,1087C656,1114 690,1128 731,1128C772,1128 806,1115 831,1088C856,1061 868,1027 868,985C868,944 855,911 828,885C801,859 768,846 731,846M1212,485l-974,0l0,203l974,0M727,47C688,47 654,60 627,86C600,112 586,144 586,182C586,223 599,258 626,286C652,314 686,328 727,328C768,328 802,315 827,288C852,261 864,226 864,184C864,143 851,110 824,85C797,60 765,47 727,47z"
   id="glyph372" />
<glyph
   unicode="◊"
   horiz-adv-x="1203"
   d="M1128,717l-473,-717l-114,0l-469,715l469,719l114,0M899,717l-299,471l-299,-471l299,-471z"
   id="glyph374" />
<glyph
   unicode="ÿ"
   horiz-adv-x="1102"
   d="M1108,1024l-416,-1106C592,-348 441,-481 240,-481C163,-481 100,-472 51,-455l0,252C93,-228 139,-240 188,-240C269,-240 326,-202 358,-125l54,127l-416,1022l350,0l191,-623C549,362 558,317 565,264l4,0C575,303 586,348 602,399l193,625M793,1186C748,1186 712,1199 683,1225C654,1251 640,1284 640,1323C640,1364 654,1397 683,1422C712,1447 748,1460 793,1460C838,1460 875,1447 904,1422C933,1396 947,1363 947,1323C947,1283 933,1250 904,1225C875,1199 838,1186 793,1186M335,1186C290,1186 253,1199 224,1226C195,1252 181,1284 181,1323C181,1363 196,1396 225,1422C254,1447 291,1460 335,1460C380,1460 417,1447 446,1422C474,1396 488,1363 488,1323C488,1282 474,1249 446,1224C417,1199 380,1186 335,1186z"
   id="glyph376" />
<glyph
   unicode="Ÿ"
   horiz-adv-x="1243"
   d="M1245,1434l-467,-924l0,-510l-323,0l0,504l-455,930l369,0l231,-535C604,889 615,850 633,782l4,0C646,830 656,868 668,895l235,539M858,1567C813,1567 777,1580 748,1606C719,1632 705,1665 705,1704C705,1745 719,1778 748,1803C777,1828 813,1841 858,1841C903,1841 940,1828 969,1803C998,1777 1012,1744 1012,1704C1012,1664 998,1631 969,1606C940,1580 903,1567 858,1567M400,1567C355,1567 318,1580 289,1607C260,1633 246,1665 246,1704C246,1744 261,1777 290,1803C319,1828 356,1841 400,1841C445,1841 482,1828 511,1803C539,1777 553,1744 553,1704C553,1663 539,1630 511,1605C482,1580 445,1567 400,1567z"
   id="glyph378" />
<glyph
   unicode="⁄"
   horiz-adv-x="719"
   d="M932,1434l-891,-1434l-244,0l891,1434z"
   id="glyph380" />
<glyph
   unicode="€"
   horiz-adv-x="1178"
   d="M1094,45C1015,-3 913,-27 786,-27C636,-27 514,15 419,98C324,181 262,299 231,453l-122,0l0,190l96,0C204,660 203,679 203,702C203,714 204,741 207,784l-98,0l0,187l127,0C273,1125 342,1245 444,1330C546,1415 673,1458 825,1458C936,1458 1026,1440 1094,1403l0,-260C1019,1202 935,1231 840,1231C767,1231 702,1207 647,1160C591,1113 551,1050 528,971l426,0l0,-187l-456,0C495,745 494,717 494,702C494,684 495,664 496,643l458,0l0,-190l-428,0C576,285 676,201 825,201C919,201 1009,231 1094,291z"
   id="glyph382" />
<glyph
   unicode="‹"
   horiz-adv-x="705"
   d="M651,201l-268,0l-330,336l330,344l268,0l-334,-344z"
   id="glyph384" />
<glyph
   unicode="›"
   horiz-adv-x="705"
   d="M651,537l-329,-336l-269,0l334,336l-332,344l267,0z"
   id="glyph386" />
<glyph
   unicode="ﬁ"
   horiz-adv-x="1366"
   d="M786,1272C748,1291 710,1300 672,1300C577,1300 530,1245 530,1135l0,-111l232,0l0,-229l-232,0l0,-795l-317,0l0,795l-172,0l0,229l172,0l0,127C213,1268 251,1362 326,1433C401,1504 502,1540 631,1540C693,1540 745,1533 786,1520M1077,1186C1024,1186 980,1202 946,1234C912,1265 895,1304 895,1350C895,1397 912,1436 946,1466C980,1496 1024,1511 1077,1511C1131,1511 1175,1496 1209,1466C1243,1436 1260,1397 1260,1350C1260,1303 1243,1264 1210,1233C1176,1202 1132,1186 1077,1186M1233,0l-315,0l0,1024l315,0z"
   id="glyph388" />
<glyph
   unicode="ﬂ"
   horiz-adv-x="1366"
   d="M786,1272C748,1291 710,1300 672,1300C577,1300 530,1245 530,1135l0,-111l232,0l0,-229l-232,0l0,-795l-317,0l0,795l-172,0l0,229l172,0l0,127C213,1268 251,1362 326,1433C401,1504 502,1540 631,1540C693,1540 745,1533 786,1520M1233,0l-315,0l0,1516l315,0z"
   id="glyph390" />
<glyph
   unicode="‡"
   horiz-adv-x="832"
   d="M766,555l-248,0l0,-313l-209,0l0,313l-248,0l0,174l248,0l0,227l-248,0l0,179l248,0l0,299l209,0l0,-299l248,0l0,-179l-248,0l0,-227l248,0z"
   id="glyph392" />
<glyph
   unicode="·"
   horiz-adv-x="555"
   d="M274,487C222,487 179,503 144,535C109,567 92,606 92,653C92,701 110,740 146,771C181,802 226,817 279,817C333,817 377,802 412,771C446,740 463,700 463,653C463,604 446,565 411,534C376,503 330,487 274,487z"
   id="glyph394" />
<glyph
   unicode="‚"
   horiz-adv-x="594"
   d="M477,219l-192,-444l-195,0l115,444z"
   id="glyph396" />
<glyph
   unicode="„"
   horiz-adv-x="1010"
   d="M893,219l-193,-444l-194,0l112,444M477,219l-192,-444l-195,0l115,444z"
   id="glyph398" />
<glyph
   unicode="‰"
   horiz-adv-x="2573"
   d="M430,707C328,707 246,739 184,804C121,869 90,956 90,1065C90,1184 123,1279 190,1349C256,1419 344,1454 455,1454C561,1454 644,1422 704,1359C763,1296 793,1207 793,1092C793,974 760,880 694,811C628,742 540,707 430,707M449,1278C352,1278 303,1210 303,1075C303,947 349,883 442,883C537,883 584,950 584,1083C584,1213 539,1278 449,1278M1477,1434l-934,-1434l-244,0l934,1434M2118,-20C2016,-20 1934,12 1872,77C1809,142 1778,229 1778,338C1778,457 1811,552 1878,622C1944,692 2032,727 2142,727C2249,727 2333,696 2393,633C2452,570 2482,482 2482,367C2482,249 2449,155 2383,85C2316,15 2228,-20 2118,-20M2136,551C2039,551 1991,483 1991,348C1991,220 2037,156 2130,156C2225,156 2273,223 2273,356C2273,418 2260,466 2235,500C2210,534 2177,551 2136,551M1323,-20C1221,-20 1139,12 1077,77C1014,142 983,229 983,338C983,457 1016,552 1083,622C1149,692 1237,727 1348,727C1455,727 1538,696 1597,633C1656,570 1686,482 1686,367C1686,249 1653,155 1587,85C1521,15 1433,-20 1323,-20M1339,551C1242,551 1194,483 1194,348C1194,220 1241,156 1335,156C1430,156 1477,223 1477,356C1477,418 1464,466 1439,500C1414,534 1380,551 1339,551z"
   id="glyph400" />
<glyph
   unicode="Â"
   horiz-adv-x="1440"
   d="M1425,0l-352,0l-102,319l-510,0l-101,-319l-350,0l522,1434l383,0M897,567l-154,482C732,1085 724,1128 719,1178l-8,0C708,1136 699,1094 686,1053l-156,-486M1078,1567l-207,0l-158,188l-147,-188l-207,0l235,325l248,0z"
   id="glyph402" />
<glyph
   unicode="Ê"
   horiz-adv-x="1090"
   d="M1024,0l-860,0l0,1434l827,0l0,-263l-504,0l0,-319l469,0l0,-262l-469,0l0,-328l537,0M932,1567l-207,0l-158,188l-147,-188l-207,0l235,325l248,0z"
   id="glyph404" />
<glyph
   unicode="Á"
   horiz-adv-x="1440"
   d="M1425,0l-352,0l-102,319l-510,0l-101,-319l-350,0l522,1434l383,0M897,567l-154,482C732,1085 724,1128 719,1178l-8,0C708,1136 699,1094 686,1053l-156,-486M1036,1890l-313,-323l-228,0l260,323z"
   id="glyph406" />
<glyph
   unicode="Ë"
   horiz-adv-x="1090"
   d="M1024,0l-860,0l0,1434l827,0l0,-263l-504,0l0,-319l469,0l0,-262l-469,0l0,-328l537,0M812,1567C767,1567 731,1580 702,1606C673,1632 659,1665 659,1704C659,1745 673,1778 702,1803C731,1828 767,1841 812,1841C857,1841 894,1828 923,1803C952,1777 966,1744 966,1704C966,1664 952,1631 923,1606C894,1580 857,1567 812,1567M354,1567C309,1567 272,1580 243,1607C214,1633 200,1665 200,1704C200,1744 215,1777 244,1803C273,1828 310,1841 354,1841C399,1841 436,1828 465,1803C493,1777 507,1744 507,1704C507,1663 493,1630 465,1605C436,1580 399,1567 354,1567z"
   id="glyph408" />
<glyph
   unicode="È"
   horiz-adv-x="1090"
   d="M1024,0l-860,0l0,1434l827,0l0,-263l-504,0l0,-319l469,0l0,-262l-469,0l0,-328l537,0M766,1567l-227,0l-314,323l281,0z"
   id="glyph410" />
<glyph
   unicode="Í"
   horiz-adv-x="649"
   d="M487,0l-323,0l0,1434l323,0M651,1890l-313,-323l-228,0l260,323z"
   id="glyph412" />
<glyph
   unicode="Î"
   horiz-adv-x="649"
   d="M487,0l-323,0l0,1434l323,0M691,1567l-207,0l-158,188l-147,-188l-207,0l235,325l248,0z"
   id="glyph414" />
<glyph
   unicode="Ï"
   horiz-adv-x="649"
   d="M487,0l-323,0l0,1434l323,0M559,1567C514,1567 478,1580 449,1606C420,1632 406,1665 406,1704C406,1745 420,1778 449,1803C478,1828 514,1841 559,1841C604,1841 641,1828 670,1803C699,1777 713,1744 713,1704C713,1664 699,1631 670,1606C641,1580 604,1567 559,1567M101,1567C56,1567 19,1580 -10,1607C-39,1633 -53,1665 -53,1704C-53,1744 -38,1777 -9,1803C20,1828 57,1841 101,1841C146,1841 183,1828 212,1803C240,1777 254,1744 254,1704C254,1663 240,1630 212,1605C183,1580 146,1567 101,1567z"
   id="glyph416" />
<glyph
   unicode="Ì"
   horiz-adv-x="649"
   d="M487,0l-323,0l0,1434l323,0M532,1567l-227,0l-314,323l281,0z"
   id="glyph418" />
<glyph
   unicode="Ó"
   horiz-adv-x="1552"
   d="M770,-25C565,-25 397,42 268,176C139,309 74,483 74,698C74,925 140,1108 271,1248C402,1388 576,1458 793,1458C998,1458 1163,1391 1290,1257C1416,1123 1479,946 1479,727C1479,502 1414,320 1283,182C1152,44 981,-25 770,-25M784,1180C671,1180 581,1138 514,1053C447,968 414,855 414,715C414,573 447,461 514,378C581,295 668,254 776,254C887,254 976,294 1041,375C1106,455 1139,566 1139,709C1139,858 1107,973 1044,1056C981,1139 894,1180 784,1180M1110,1890l-313,-323l-228,0l260,323z"
   id="glyph420" />
<glyph
   unicode="Ô"
   horiz-adv-x="1552"
   d="M770,-25C565,-25 397,42 268,176C139,309 74,483 74,698C74,925 140,1108 271,1248C402,1388 576,1458 793,1458C998,1458 1163,1391 1290,1257C1416,1123 1479,946 1479,727C1479,502 1414,320 1283,182C1152,44 981,-25 770,-25M784,1180C671,1180 581,1138 514,1053C447,968 414,855 414,715C414,573 447,461 514,378C581,295 668,254 776,254C887,254 976,294 1041,375C1106,455 1139,566 1139,709C1139,858 1107,973 1044,1056C981,1139 894,1180 784,1180M1149,1567l-207,0l-158,188l-147,-188l-207,0l235,325l248,0z"
   id="glyph422" />
<glyph
   unicode="Ò"
   horiz-adv-x="1552"
   d="M770,-25C565,-25 397,42 268,176C139,309 74,483 74,698C74,925 140,1108 271,1248C402,1388 576,1458 793,1458C998,1458 1163,1391 1290,1257C1416,1123 1479,946 1479,727C1479,502 1414,320 1283,182C1152,44 981,-25 770,-25M784,1180C671,1180 581,1138 514,1053C447,968 414,855 414,715C414,573 447,461 514,378C581,295 668,254 776,254C887,254 976,294 1041,375C1106,455 1139,566 1139,709C1139,858 1107,973 1044,1056C981,1139 894,1180 784,1180M971,1567l-227,0l-314,323l281,0z"
   id="glyph424" />
<glyph
   unicode="Ú"
   horiz-adv-x="1481"
   d="M1333,621C1333,190 1132,-25 731,-25C342,-25 147,185 147,606l0,828l324,0l0,-832C471,370 562,254 743,254C921,254 1010,366 1010,590l0,844l323,0M1088,1890l-313,-323l-228,0l260,323z"
   id="glyph426" />
<glyph
   unicode="Û"
   horiz-adv-x="1481"
   d="M1333,621C1333,190 1132,-25 731,-25C342,-25 147,185 147,606l0,828l324,0l0,-832C471,370 562,254 743,254C921,254 1010,366 1010,590l0,844l323,0M1099,1567l-207,0l-158,188l-147,-188l-207,0l235,325l248,0z"
   id="glyph428" />
<glyph
   unicode="Ù"
   horiz-adv-x="1481"
   d="M1333,621C1333,190 1132,-25 731,-25C342,-25 147,185 147,606l0,828l324,0l0,-832C471,370 562,254 743,254C921,254 1010,366 1010,590l0,844l323,0M920,1567l-227,0l-314,323l281,0z"
   id="glyph430" />
<glyph
   unicode="ı"
   horiz-adv-x="582"
   d="M449,0l-316,0l0,1024l316,0z"
   id="glyph432" />
<glyph
   unicode="ˆ"
   horiz-adv-x="785"
   d="M750,1186l-207,0l-158,188l-147,-188l-207,0l235,325l248,0z"
   id="glyph434" />
<glyph
   unicode="˜"
   horiz-adv-x="785"
   d="M754,1497C754,1404 736,1332 699,1281C662,1230 611,1204 547,1204C490,1204 434,1218 379,1247C320,1278 279,1294 256,1294C203,1294 176,1258 176,1186l-141,0C35,1279 53,1351 90,1402C127,1453 178,1479 244,1479C298,1479 354,1463 412,1430C465,1401 505,1386 532,1386C584,1386 610,1423 610,1497z"
   id="glyph436" />
<glyph
   unicode="ˉ"
   horiz-adv-x="690"
   d="M637,1186l-586,0l0,172l586,0z"
   id="glyph438" />
<glyph
   unicode="˘"
   horiz-adv-x="709"
   d="M692,1493C684,1399 650,1324 590,1269C529,1214 450,1186 352,1186C255,1186 175,1215 114,1272C53,1329 21,1402 18,1493l179,0C208,1403 261,1358 356,1358C447,1358 499,1403 512,1493z"
   id="glyph440" />
<glyph
   unicode="˙"
   horiz-adv-x="518"
   d="M260,1186C215,1186 179,1199 150,1226C121,1253 106,1285 106,1323C106,1363 121,1396 150,1421C179,1446 216,1458 260,1458C305,1458 341,1445 370,1420C398,1395 412,1362 412,1323C412,1284 398,1251 370,1225C341,1199 305,1186 260,1186z"
   id="glyph442" />
<glyph
   unicode="˚"
   horiz-adv-x="555"
   d="M274,1186C206,1186 150,1206 106,1246C61,1285 39,1337 39,1401C39,1468 62,1522 109,1562C155,1602 212,1622 279,1622C350,1622 408,1602 452,1563C496,1523 518,1471 518,1407C518,1342 494,1289 447,1248C399,1207 341,1186 274,1186M274,1499C210,1499 178,1468 178,1405C178,1342 210,1311 274,1311C304,1311 329,1320 348,1339C367,1357 377,1379 377,1405C377,1432 368,1455 349,1473C330,1490 305,1499 274,1499z"
   id="glyph444" />
<glyph
   unicode="¸"
   horiz-adv-x="441"
   d="M51,-451l0,138C74,-317 98,-319 123,-319C205,-319 246,-295 246,-246C246,-202 209,-180 135,-180C126,-180 114,-181 98,-182l0,182l172,0l0,-82C395,-87 457,-143 457,-248C457,-386 351,-455 139,-455C108,-455 79,-454 51,-451z"
   id="glyph446" />
<glyph
   unicode="˝"
   horiz-adv-x="832"
   d="M870,1505l-252,-319l-210,0l213,319M492,1505l-248,-319l-211,0l211,319z"
   id="glyph448" />
<glyph
   unicode="˛"
   horiz-adv-x="545"
   d="M443,-323C392,-340 340,-349 289,-349C232,-349 186,-333 151,-300C116,-268 98,-226 98,-174C98,-118 122,-60 171,0l155,0C286,-61 266,-115 266,-160C266,-195 285,-213 324,-213C357,-213 396,-204 443,-187z"
   id="glyph450" />
<glyph
   unicode="ˇ"
   horiz-adv-x="785"
   d="M754,1511l-238,-325l-248,0l-235,325l205,0l155,-188l156,188z"
   id="glyph452" />
<glyph
   unicode="Ł"
   horiz-adv-x="1047"
   d="M1018,0l-854,0l0,467l-162,-86l0,264l162,84l0,705l323,0l0,-549l283,149l0,-262l-283,-149l0,-361l531,0z"
   id="glyph454" />
<glyph
   unicode="ł"
   horiz-adv-x="643"
   d="M610,754l-135,-86l0,-668l-315,0l0,473l-131,-84l0,258l131,82l0,787l315,0l0,-592l135,86z"
   id="glyph456" />
<glyph
   unicode="Š"
   horiz-adv-x="1098"
   d="M106,55l0,320C221,278 347,229 485,229C551,229 602,243 639,270C676,297 694,332 694,375C694,412 679,448 648,481C617,514 544,557 428,612C209,715 100,855 100,1032C100,1161 148,1264 243,1342C338,1419 464,1458 623,1458C763,1458 879,1440 971,1403l0,-299C875,1171 765,1204 641,1204C579,1204 530,1191 494,1164C458,1137 440,1102 440,1059C440,1016 454,980 483,950C511,920 571,883 662,840C803,773 901,706 954,639C1007,572 1034,494 1034,403C1034,271 987,167 892,90C797,13 658,-25 477,-25C328,-25 205,2 106,55M916,1861l-238,-325l-248,0l-235,325l205,0l155,-188l156,188z"
   id="glyph458" />
<glyph
   unicode="š"
   horiz-adv-x="901"
   d="M94,27l0,256C198,221 296,190 387,190C487,190 537,221 537,283C537,310 525,333 501,350C477,367 425,391 344,422C251,457 186,499 149,546C112,593 94,652 94,723C94,822 133,901 211,960C289,1019 393,1049 524,1049C609,1049 693,1035 778,1008l0,-244C699,811 615,834 528,834C445,834 403,805 403,748C403,719 413,696 433,678C453,660 496,639 563,616C665,580 737,538 778,491C819,443 840,384 840,313C840,210 801,128 722,67C643,6 532,-25 391,-25C285,-25 186,-8 94,27M772,1511l-238,-325l-248,0l-235,325l205,0l155,-188l156,188z"
   id="glyph460" />
<glyph
   unicode="Ž"
   horiz-adv-x="1243"
   d="M1196,0l-1155,0l0,186l735,985l-682,0l0,263l1100,0l0,-181l-719,-991l721,0M990,1858l-238,-325l-248,0l-235,325l205,0l155,-188l156,188z"
   id="glyph462" />
<glyph
   unicode="ž"
   horiz-adv-x="981"
   d="M944,0l-919,0l0,131l514,660l-463,0l0,233l864,0l0,-156l-487,-635l491,0M872,1511l-238,-325l-248,0l-235,325l205,0l155,-188l156,188z"
   id="glyph464" />
<glyph
   unicode="¦"
   horiz-adv-x="668"
   d="M461,684l-252,0l0,883l252,0M461,-481l-252,0l0,895l252,0z"
   id="glyph466" />
<glyph
   unicode="Ð"
   horiz-adv-x="1510"
   d="M164,0l0,586l-164,0l0,266l164,0l0,582l508,0C1181,1434 1436,1201 1436,735C1436,512 1367,333 1228,200C1089,67 903,0 672,0M487,1171l0,-319l271,0l0,-266l-271,0l0,-324l160,0C787,262 897,304 977,388C1056,472 1096,586 1096,731C1096,868 1057,975 978,1054C899,1132 788,1171 645,1171z"
   id="glyph468" />
<glyph
   unicode="ð"
   horiz-adv-x="1215"
   d="M756,965l4,2C704,1065 639,1144 565,1204l-291,-143l-81,141l241,115C329,1400 239,1467 164,1516l352,0C523,1512 567,1480 647,1419l273,133l77,-137l-215,-104C1023,1117 1143,868 1143,563C1143,390 1093,248 993,139C893,30 761,-25 598,-25C433,-25 304,23 211,120C118,216 72,347 72,514C72,668 116,794 205,893C293,991 408,1040 551,1040C629,1040 697,1015 756,965M612,807C543,807 490,781 451,729C412,676 393,605 393,514C393,421 412,348 450,296C488,243 541,217 608,217C673,217 725,244 764,299C802,353 821,427 821,520C821,711 751,807 612,807z"
   id="glyph470" />
<glyph
   unicode="Ý"
   horiz-adv-x="1243"
   d="M1245,1434l-467,-924l0,-510l-323,0l0,504l-455,930l369,0l231,-535C604,889 615,850 633,782l4,0C646,830 656,868 668,895l235,539M903,1857l-313,-323l-228,0l260,323z"
   id="glyph472" />
<glyph
   unicode="ý"
   horiz-adv-x="1102"
   d="M1108,1024l-416,-1106C592,-348 441,-481 240,-481C163,-481 100,-472 51,-455l0,252C93,-228 139,-240 188,-240C269,-240 326,-202 358,-125l54,127l-416,1022l350,0l191,-623C549,362 558,317 565,264l4,0C575,303 586,348 602,399l193,625M834,1509l-313,-323l-228,0l260,323z"
   id="glyph474" />
<glyph
   unicode="Þ"
   horiz-adv-x="1258"
   d="M487,281l0,-281l-323,0l0,1434l323,0l0,-211l183,0C1031,1223 1212,1071 1212,766C1212,622 1160,505 1057,416C953,326 814,281 641,281M487,975l0,-447l127,0C786,528 872,603 872,754C872,901 786,975 614,975z"
   id="glyph476" />
<glyph
   unicode="þ"
   horiz-adv-x="1270"
   d="M453,119l-4,0l0,-590l-316,0l0,1987l316,0l0,-646l4,0C531,989 641,1049 782,1049C915,1049 1017,1004 1090,913C1162,822 1198,698 1198,541C1198,370 1156,233 1072,130C987,27 875,-25 735,-25C612,-25 518,23 453,119M444,539l0,-82C444,386 463,329 500,284C537,239 586,217 647,217C719,217 775,245 815,301C854,356 874,435 874,537C874,717 804,807 664,807C599,807 547,783 506,734C465,685 444,620 444,539z"
   id="glyph478" />
<glyph
   unicode="−"
   horiz-adv-x="1448"
   d="M1212,485l-974,0l0,203l974,0z"
   id="glyph480" />
<glyph
   unicode="×"
   horiz-adv-x="1448"
   d="M1210,248l-145,-144l-338,340l-340,-340l-145,146l340,336l-340,340l141,145l344,-340l342,340l139,-151l-338,-334z"
   id="glyph482" />
<glyph
   unicode="¹"
   horiz-adv-x="807"
   d="M721,584l-563,0l0,172l176,0l0,477l-191,-41l0,180l406,82l0,-698l172,0z"
   id="glyph484" />
<glyph
   unicode="²"
   horiz-adv-x="828"
   d="M721,584l-604,0l0,157l248,234C416,1024 448,1060 461,1085C473,1110 479,1137 479,1167C479,1195 470,1218 451,1237C432,1255 406,1264 375,1264C310,1264 239,1230 164,1161l0,215C243,1428 326,1454 414,1454C505,1454 577,1431 630,1386C683,1340 709,1277 709,1196C709,1149 697,1102 672,1055C647,1008 587,942 492,858l-105,-92l0,-4l334,0z"
   id="glyph486" />
<glyph
   unicode="³"
   horiz-adv-x="828"
   d="M131,616l0,181C202,752 276,729 352,729C452,729 502,763 502,831C502,900 445,934 330,934l-117,0l0,166l113,0C425,1100 475,1132 475,1196C475,1256 435,1286 356,1286C285,1286 219,1264 158,1221l0,176C224,1435 304,1454 397,1454C486,1454 557,1434 609,1394C660,1353 686,1300 686,1233C686,1135 638,1070 543,1038l0,-4C658,1007 715,941 715,836C715,754 682,688 617,638C552,588 466,563 360,563C271,563 195,581 131,616z"
   id="glyph488" />
<glyph
   unicode="½"
   horiz-adv-x="1977"
   d="M676,584l-563,0l0,172l176,0l0,477l-191,-41l0,180l406,82l0,-698l172,0M1506,1434l-891,-1434l-244,0l891,1434M1843,0l-604,0l0,157l248,234C1538,440 1570,476 1583,501C1595,526 1601,553 1601,583C1601,611 1592,634 1573,653C1554,671 1528,680 1497,680C1432,680 1361,646 1286,577l0,215C1365,844 1448,870 1536,870C1627,870 1699,847 1752,802C1805,756 1831,693 1831,612C1831,565 1819,518 1794,471C1769,424 1709,358 1614,274l-105,-92l0,-4l334,0z"
   id="glyph490" />
<glyph
   unicode="¼"
   horiz-adv-x="1950"
   d="M676,584l-563,0l0,172l176,0l0,477l-191,-41l0,180l406,82l0,-698l172,0M1505,1434l-891,-1434l-244,0l891,1434M1845,176l-110,0l0,-176l-213,0l0,176l-395,0l0,141l350,533l258,0l0,-519l110,0M1526,678l-8,0C1509,654 1496,629 1479,602l-168,-271l211,0l0,263C1522,625 1523,653 1526,678z"
   id="glyph492" />
<glyph
   unicode="¾"
   horiz-adv-x="2005"
   d="M131,616l0,181C202,752 276,729 352,729C452,729 502,763 502,831C502,900 445,934 330,934l-117,0l0,166l113,0C425,1100 475,1132 475,1196C475,1256 435,1286 356,1286C285,1286 219,1264 158,1221l0,176C224,1435 304,1454 397,1454C486,1454 557,1434 609,1394C660,1353 686,1300 686,1233C686,1135 638,1070 543,1038l0,-4C658,1007 715,941 715,836C715,754 682,688 617,638C552,588 466,563 360,563C271,563 195,581 131,616M1565,1434l-891,-1434l-244,0l891,1434M1892,176l-110,0l0,-176l-213,0l0,176l-395,0l0,141l350,533l258,0l0,-519l110,0M1573,678l-8,0C1556,654 1543,629 1526,602l-168,-271l211,0l0,263C1569,625 1570,653 1573,678z"
   id="glyph494" />
<glyph
   unicode="₣"
   horiz-adv-x="1065"
   d="M993,1171l-506,0l0,-352l465,0l0,-262l-465,0l0,-164l271,0l0,-205l-271,0l0,-188l-323,0l0,188l-164,0l0,205l164,0l0,1041l829,0z"
   id="glyph496" />
<glyph
   unicode="Ğ"
   horiz-adv-x="1456"
   d="M1341,96C1201,15 1027,-25 819,-25C588,-25 407,39 274,167C141,294 74,470 74,694C74,919 147,1103 292,1245C437,1387 631,1458 872,1458C1024,1458 1158,1437 1274,1395l0,-303C1163,1156 1028,1188 868,1188C734,1188 625,1145 541,1058C456,971 414,854 414,709C414,562 452,448 528,367C603,286 705,246 834,246C911,246 973,257 1018,279l0,280l-287,0l0,258l610,0M1143,1874C1135,1780 1101,1705 1041,1650C980,1595 901,1567 803,1567C706,1567 626,1596 565,1653C504,1710 472,1783 469,1874l179,0C659,1784 712,1739 807,1739C898,1739 950,1784 963,1874z"
   id="glyph498" />
<glyph
   unicode="ğ"
   horiz-adv-x="1268"
   d="M1137,117C1137,-73 1082,-220 972,-324C862,-429 703,-481 494,-481C356,-481 247,-461 166,-422l0,266C271,-217 378,-248 485,-248C592,-248 674,-220 733,-163C792,-107 821,-31 821,66l0,81l-4,0C745,32 639,-25 498,-25C367,-25 264,21 187,113C110,205 72,328 72,483C72,656 115,794 200,896C285,998 398,1049 537,1049C662,1049 755,1001 817,905l4,0l0,119l316,0M825,492l0,81C825,638 806,693 768,739C729,784 679,807 618,807C548,807 493,780 453,725C413,670 393,593 393,494C393,409 412,341 450,292C488,242 540,217 606,217C671,217 724,242 765,293C805,343 825,409 825,492M971,1493C963,1399 929,1324 869,1269C808,1214 729,1186 631,1186C534,1186 454,1215 393,1272C332,1329 300,1402 297,1493l179,0C487,1403 540,1358 635,1358C726,1358 778,1403 791,1493z"
   id="glyph500" />
<glyph
   unicode="İ"
   horiz-adv-x="649"
   d="M487,0l-323,0l0,1434l323,0M325,1567C280,1567 244,1580 215,1607C186,1634 171,1666 171,1704C171,1744 186,1777 215,1802C244,1827 281,1839 325,1839C370,1839 406,1826 435,1801C463,1776 477,1743 477,1704C477,1665 463,1632 435,1606C406,1580 370,1567 325,1567z"
   id="glyph502" />
<glyph
   unicode="Ş"
   horiz-adv-x="1098"
   d="M614,-16l0,-66C739,-87 801,-143 801,-248C801,-386 695,-455 483,-455C452,-455 423,-454 395,-451l0,138C418,-317 442,-319 467,-319C549,-319 590,-295 590,-246C590,-202 553,-180 479,-180C470,-180 458,-181 442,-182l0,158C305,-18 193,8 106,55l0,320C221,278 347,229 485,229C551,229 602,243 639,270C676,297 694,332 694,375C694,412 679,448 648,481C617,514 543,558 428,612C209,715 100,855 100,1032C100,1161 148,1264 243,1342C338,1419 464,1458 623,1458C763,1458 879,1440 971,1403l0,-299C875,1171 765,1204 641,1204C579,1204 530,1191 494,1164C458,1137 440,1102 440,1059C440,1016 454,980 483,950C511,920 571,883 662,840C803,773 901,706 954,639C1007,572 1034,494 1034,403C1034,290 998,196 927,122C855,48 751,2 614,-16z"
   id="glyph504" />
<glyph
   unicode="ş"
   horiz-adv-x="901"
   d="M518,-15l0,-67C643,-87 705,-143 705,-248C705,-386 599,-455 387,-455C356,-455 327,-454 299,-451l0,138C322,-317 346,-319 371,-319C453,-319 494,-295 494,-246C494,-202 457,-180 383,-180C374,-180 362,-181 346,-182l0,159C249,-16 165,0 94,27l0,256C198,221 296,190 387,190C487,190 537,221 537,283C537,310 525,333 501,350C477,367 425,391 344,422C251,457 186,499 149,546C112,593 94,652 94,723C94,822 133,901 211,960C289,1019 393,1049 524,1049C609,1049 693,1035 778,1008l0,-244C699,811 615,834 528,834C445,834 403,805 403,748C403,719 413,696 433,678C453,660 496,639 563,616C665,580 737,538 778,491C819,443 840,384 840,313C840,227 812,155 756,98C699,40 620,2 518,-15z"
   id="glyph506" />
<glyph
   unicode="Ć"
   horiz-adv-x="1278"
   d="M1192,51C1087,0 951,-25 782,-25C562,-25 389,40 263,169C137,298 74,471 74,686C74,915 145,1101 287,1244C428,1387 612,1458 838,1458C978,1458 1096,1440 1192,1405l0,-311C1096,1151 987,1180 864,1180C729,1180 621,1138 538,1053C455,968 414,854 414,709C414,570 453,460 531,378C609,295 714,254 846,254C972,254 1087,285 1192,346M1159,1890l-313,-323l-228,0l260,323z"
   id="glyph508" />
<glyph
   unicode="ć"
   horiz-adv-x="983"
   d="M909,37C838,-4 735,-25 600,-25C443,-25 315,23 218,118C121,213 72,336 72,487C72,661 124,798 229,899C333,999 472,1049 647,1049C768,1049 855,1033 909,1001l0,-268C843,782 769,807 688,807C597,807 526,781 473,728C420,675 393,601 393,508C393,417 418,346 469,295C520,243 589,217 678,217C757,217 834,242 909,291M926,1509l-313,-323l-228,0l260,323z"
   id="glyph510" />
<glyph
   unicode="Č"
   horiz-adv-x="1278"
   d="M1192,51C1087,0 951,-25 782,-25C562,-25 389,40 263,169C137,298 74,471 74,686C74,915 145,1101 287,1244C428,1387 612,1458 838,1458C978,1458 1096,1440 1192,1405l0,-311C1096,1151 987,1180 864,1180C729,1180 621,1138 538,1053C455,968 414,854 414,709C414,570 453,460 531,378C609,295 714,254 846,254C972,254 1087,285 1192,346M1163,1892l-238,-325l-248,0l-235,325l205,0l155,-188l156,188z"
   id="glyph512" />
<glyph
   unicode="č"
   horiz-adv-x="983"
   d="M909,37C838,-4 735,-25 600,-25C443,-25 315,23 218,118C121,213 72,336 72,487C72,661 124,798 229,899C333,999 472,1049 647,1049C768,1049 855,1033 909,1001l0,-268C843,782 769,807 688,807C597,807 526,781 473,728C420,675 393,601 393,508C393,417 418,346 469,295C520,243 589,217 678,217C757,217 834,242 909,291M950,1511l-238,-325l-248,0l-235,325l205,0l155,-188l156,188z"
   id="glyph514" />
<glyph
   unicode="đ"
   horiz-adv-x="1295"
   d="M1278,1171l-143,0l0,-1171l-316,0l0,141l-4,0C743,30 637,-25 498,-25C370,-25 267,20 189,111C111,201 72,327 72,489C72,658 115,794 201,896C287,998 400,1049 539,1049C671,1049 763,1002 815,907l4,0l0,264l-330,0l0,205l330,0l0,140l316,0l0,-140l143,0M825,498l0,77C825,642 806,697 767,741C728,785 678,807 616,807C546,807 491,780 452,725C413,670 393,594 393,498C393,408 412,339 450,290C488,241 541,217 608,217C672,217 724,243 765,294C805,345 825,413 825,498z"
   id="glyph516" />
<glyph
   unicode="¯"
   horiz-adv-x="425"
   d="M425,698l-425,0l0,60l425,0z"
   id="glyph518" />
<glyph
   unicode="∙"
   horiz-adv-x="555"
   d="M274,487C222,487 179,503 144,535C109,567 92,606 92,653C92,701 110,740 146,771C181,802 226,817 279,817C333,817 377,802 412,771C446,740 463,700 463,653C463,604 446,565 411,534C376,503 330,487 274,487z"
   id="glyph520" />
<glyph
   unicode="Ă"
   horiz-adv-x="1440"
   d="M1425,0l-352,0l-102,319l-510,0l-101,-319l-350,0l522,1434l383,0M897,567l-154,482C732,1085 724,1128 719,1178l-8,0C708,1136 699,1094 686,1053l-156,-486M1057,1874C1049,1780 1015,1705 955,1650C894,1595 815,1567 717,1567C620,1567 540,1596 479,1653C418,1710 386,1783 383,1874l179,0C573,1784 626,1739 721,1739C812,1739 864,1784 877,1874z"
   id="glyph522" />
<glyph
   unicode="ă"
   horiz-adv-x="1102"
   d="M985,0l-299,0l0,147l-4,0C613,32 512,-25 377,-25C278,-25 200,3 143,60C86,116 57,191 57,285C57,484 175,598 410,629l278,37C688,778 627,834 506,834C384,834 268,798 158,725l0,238C202,986 262,1006 339,1023C415,1040 484,1049 547,1049C839,1049 985,903 985,612M688,416l0,69l-186,-24C399,448 348,401 348,322C348,286 361,257 386,234C411,211 444,199 487,199C546,199 595,220 632,261C669,302 688,353 688,416M908,1493C900,1399 866,1324 806,1269C745,1214 666,1186 568,1186C471,1186 391,1215 330,1272C269,1329 237,1402 234,1493l179,0C424,1403 477,1358 572,1358C663,1358 715,1403 728,1493z"
   id="glyph524" />
<glyph
   unicode="Ą"
   horiz-adv-x="1440"
   d="M1425,0l-197,0C1188,-61 1168,-115 1168,-160C1168,-195 1187,-213 1226,-213C1259,-213 1298,-204 1345,-187l0,-136C1294,-340 1242,-349 1191,-349C1134,-349 1088,-333 1053,-300C1018,-268 1000,-226 1000,-174C1000,-118 1024,-60 1073,0l-102,319l-510,0l-101,-319l-350,0l522,1434l383,0M897,567l-154,482C732,1085 724,1128 719,1178l-8,0C708,1136 699,1094 686,1053l-156,-486z"
   id="glyph526" />
<glyph
   unicode="ą"
   horiz-adv-x="1102"
   d="M985,0l-144,0C801,-61 781,-115 781,-160C781,-195 800,-213 839,-213C872,-213 911,-204 958,-187l0,-136C907,-340 855,-349 804,-349C747,-349 701,-333 666,-300C631,-268 613,-226 613,-174C613,-118 637,-60 686,0l0,147l-4,0C613,32 512,-25 377,-25C278,-25 200,3 143,60C86,116 57,191 57,285C57,484 175,598 410,629l278,37C688,778 627,834 506,834C384,834 268,798 158,725l0,238C202,986 262,1006 339,1023C415,1040 484,1049 547,1049C839,1049 985,903 985,612M688,416l0,69l-186,-24C399,448 348,401 348,322C348,286 361,257 386,234C411,211 444,199 487,199C546,199 595,220 632,261C669,302 688,353 688,416z"
   id="glyph528" />
<glyph
   unicode="Ď"
   horiz-adv-x="1510"
   d="M164,0l0,1434l508,0C1181,1434 1436,1201 1436,735C1436,512 1367,333 1228,200C1089,67 903,0 672,0M487,1171l0,-909l160,0C787,262 897,304 977,388C1056,472 1096,586 1096,731C1096,868 1057,975 978,1054C899,1132 788,1171 645,1171M1077,1892l-238,-325l-248,0l-235,325l205,0l155,-188l156,188z"
   id="glyph530" />
<glyph
   unicode="ď"
   horiz-adv-x="1432"
   d="M1135,0l-316,0l0,141l-4,0C743,30 637,-25 498,-25C370,-25 267,20 189,111C111,201 72,327 72,489C72,658 115,794 201,896C287,998 400,1049 539,1049C671,1049 763,1002 815,907l4,0l0,609l316,0M825,498l0,77C825,642 806,697 767,741C728,785 678,807 616,807C546,807 491,780 452,725C413,670 393,594 393,498C393,408 412,339 450,290C488,241 541,217 608,217C672,217 724,243 765,294C805,345 825,413 825,498M1603,1515l-168,-352l-194,0l90,352z"
   id="glyph532" />
<glyph
   unicode="Đ"
   horiz-adv-x="1510"
   d="M164,0l0,586l-164,0l0,266l164,0l0,582l508,0C1181,1434 1436,1201 1436,735C1436,512 1367,333 1228,200C1089,67 903,0 672,0M487,1171l0,-319l271,0l0,-266l-271,0l0,-324l160,0C787,262 897,304 977,388C1056,472 1096,586 1096,731C1096,868 1057,975 978,1054C899,1132 788,1171 645,1171z"
   id="glyph534" />
<glyph
   unicode="Ę"
   horiz-adv-x="1090"
   d="M1024,0l-143,0C841,-61 821,-115 821,-160C821,-195 840,-213 879,-213C912,-213 951,-204 998,-187l0,-136C947,-340 895,-349 844,-349C787,-349 741,-333 706,-300C671,-268 653,-226 653,-174C653,-118 677,-60 726,0l-562,0l0,1434l827,0l0,-263l-504,0l0,-319l469,0l0,-262l-469,0l0,-328l537,0z"
   id="glyph536" />
<glyph
   unicode="ę"
   horiz-adv-x="1108"
   d="M1053,422l-668,0C396,273 489,199 666,199C779,199 878,226 963,279l0,-228C891,12 796,-12 679,-21C648,-74 633,-120 633,-160C633,-195 652,-213 691,-213C723,-213 762,-204 809,-187l0,-136C758,-340 706,-349 655,-349C598,-349 553,-333 518,-300C483,-268 465,-226 465,-174C465,-125 484,-74 522,-21C378,-8 267,44 189,134C111,224 72,345 72,496C72,666 121,801 220,900C319,999 440,1049 584,1049C733,1049 849,1005 931,916C1012,827 1053,707 1053,555M760,616C760,763 701,836 582,836C531,836 488,815 451,773C414,731 391,679 383,616z"
   id="glyph538" />
<glyph
   unicode="Ě"
   horiz-adv-x="1090"
   d="M1024,0l-860,0l0,1434l827,0l0,-263l-504,0l0,-319l469,0l0,-262l-469,0l0,-328l537,0M954,1892l-238,-325l-248,0l-235,325l205,0l155,-188l156,188z"
   id="glyph540" />
<glyph
   unicode="ě"
   horiz-adv-x="1108"
   d="M1053,422l-668,0C396,273 489,199 666,199C779,199 878,226 963,279l0,-228C868,0 745,-25 594,-25C429,-25 300,21 209,113C118,204 72,332 72,496C72,666 121,801 220,900C319,999 440,1049 584,1049C733,1049 849,1005 931,916C1012,827 1053,707 1053,555M760,616C760,763 701,836 582,836C531,836 488,815 451,773C414,731 391,679 383,616M935,1511l-238,-325l-248,0l-235,325l205,0l155,-188l156,188z"
   id="glyph542" />
<glyph
   unicode="Ĺ"
   horiz-adv-x="1047"
   d="M1018,0l-854,0l0,1434l323,0l0,-1172l531,0M903,1890l-313,-323l-228,0l260,323z"
   id="glyph544" />
<glyph
   unicode="ĺ"
   horiz-adv-x="582"
   d="M449,0l-316,0l0,1516l316,0M652,1972l-313,-323l-228,0l260,323z"
   id="glyph546" />
<glyph
   unicode="Ľ"
   horiz-adv-x="1047"
   d="M1018,0l-854,0l0,1434l323,0l0,-1172l531,0M1032,1433l-168,-352l-194,0l90,352z"
   id="glyph548" />
<glyph
   unicode="ľ"
   horiz-adv-x="746"
   d="M449,0l-316,0l0,1516l316,0M917,1515l-168,-352l-194,0l90,352z"
   id="glyph550" />
<glyph
   unicode="Ŀ"
   horiz-adv-x="1047"
   d="M1018,0l-854,0l0,1434l323,0l0,-1172l531,0M827,651C782,651 746,664 717,691C688,718 673,750 673,788C673,828 688,861 717,886C746,911 783,923 827,923C872,923 908,910 937,885C965,860 979,827 979,788C979,749 965,716 937,690C908,664 872,651 827,651z"
   id="glyph552" />
<glyph
   unicode="ŀ"
   horiz-adv-x="887"
   d="M449,0l-316,0l0,1516l316,0M735,590C690,590 654,603 625,630C596,657 581,689 581,727C581,767 596,800 625,825C654,850 691,862 735,862C780,862 816,849 845,824C873,799 887,766 887,727C887,688 873,655 845,629C816,603 780,590 735,590z"
   id="glyph554" />
<glyph
   unicode="Ń"
   horiz-adv-x="1618"
   d="M1454,0l-326,0l-591,901C502,954 478,993 465,1020l-4,0C466,969 469,892 469,788l0,-788l-305,0l0,1434l348,0l569,-873C1107,522 1131,483 1153,444l4,0C1152,477 1149,543 1149,641l0,793l305,0M1143,1890l-313,-323l-228,0l260,323z"
   id="glyph556" />
<glyph
   unicode="ń"
   horiz-adv-x="1239"
   d="M1122,0l-315,0l0,569C807,728 750,807 637,807C582,807 537,786 502,744C467,702 449,649 449,584l0,-584l-316,0l0,1024l316,0l0,-162l4,0C528,987 638,1049 782,1049C1009,1049 1122,908 1122,627M972,1509l-313,-323l-228,0l260,323z"
   id="glyph558" />
<glyph
   unicode="Ň"
   horiz-adv-x="1618"
   d="M1454,0l-326,0l-591,901C502,954 478,993 465,1020l-4,0C466,969 469,892 469,788l0,-788l-305,0l0,1434l348,0l569,-873C1107,522 1131,483 1153,444l4,0C1152,477 1149,543 1149,641l0,793l305,0M1170,1892l-238,-325l-248,0l-235,325l205,0l155,-188l156,188z"
   id="glyph560" />
<glyph
   unicode="ň"
   horiz-adv-x="1239"
   d="M1122,0l-315,0l0,569C807,728 750,807 637,807C582,807 537,786 502,744C467,702 449,649 449,584l0,-584l-316,0l0,1024l316,0l0,-162l4,0C528,987 638,1049 782,1049C1009,1049 1122,908 1122,627M1001,1511l-238,-325l-248,0l-235,325l205,0l155,-188l156,188z"
   id="glyph562" />
<glyph
   unicode="Ő"
   horiz-adv-x="1553"
   d="M770,-25C565,-25 397,42 268,176C139,309 74,483 74,698C74,925 140,1108 271,1248C402,1388 576,1458 793,1458C998,1458 1163,1391 1290,1257C1416,1123 1479,946 1479,727C1479,502 1414,320 1283,182C1152,44 981,-25 770,-25M784,1180C671,1180 581,1138 514,1053C447,968 414,855 414,715C414,573 447,461 514,378C581,295 668,254 776,254C887,254 976,294 1041,375C1106,455 1139,566 1139,709C1139,858 1107,973 1044,1056C981,1139 894,1180 784,1180M1277,1886l-252,-319l-210,0l213,319M899,1886l-248,-319l-211,0l211,319z"
   id="glyph564" />
<glyph
   unicode="ő"
   horiz-adv-x="1252"
   d="M621,-25C450,-25 316,23 219,119C121,214 72,344 72,508C72,677 123,810 224,906C325,1001 462,1049 635,1049C805,1049 938,1001 1035,906C1132,810 1180,683 1180,526C1180,356 1130,222 1031,123C931,24 794,-25 621,-25M629,807C554,807 496,781 455,730C414,679 393,606 393,512C393,315 472,217 631,217C782,217 858,318 858,520C858,711 782,807 629,807M1106,1505l-252,-319l-210,0l213,319M728,1505l-248,-319l-211,0l211,319z"
   id="glyph566" />
<glyph
   unicode="Ŕ"
   horiz-adv-x="1303"
   d="M1266,0l-371,0l-145,369C703,489 638,549 557,549l-70,0l0,-549l-323,0l0,1434l512,0C1024,1434 1198,1304 1198,1044C1198,945 1170,861 1113,792C1056,723 976,676 874,649l0,-4C958,618 1026,545 1079,424M487,1192l0,-399l140,0C696,793 752,813 795,854C837,894 858,944 858,1004C858,1129 783,1192 633,1192M979,1890l-313,-323l-228,0l260,323z"
   id="glyph568" />
<glyph
   unicode="ŕ"
   horiz-adv-x="815"
   d="M801,739C763,760 719,770 668,770C599,770 546,745 507,695C468,644 449,576 449,489l0,-489l-316,0l0,1024l316,0l0,-190l4,0C503,973 593,1042 723,1042C756,1042 782,1038 801,1030M772,1509l-313,-323l-228,0l260,323z"
   id="glyph570" />
<glyph
   unicode="Ř"
   horiz-adv-x="1303"
   d="M1266,0l-371,0l-145,369C703,489 638,549 557,549l-70,0l0,-549l-323,0l0,1434l512,0C1024,1434 1198,1304 1198,1044C1198,945 1170,861 1113,792C1056,723 976,676 874,649l0,-4C958,618 1026,545 1079,424M487,1192l0,-399l140,0C696,793 752,813 795,854C837,894 858,944 858,1004C858,1129 783,1192 633,1192M997,1892l-238,-325l-248,0l-235,325l205,0l155,-188l156,188z"
   id="glyph572" />
<glyph
   unicode="ř"
   horiz-adv-x="815"
   d="M801,739C763,760 719,770 668,770C599,770 546,745 507,695C468,644 449,576 449,489l0,-489l-316,0l0,1024l316,0l0,-190l4,0C503,973 593,1042 723,1042C756,1042 782,1038 801,1030M789,1511l-238,-325l-248,0l-235,325l205,0l155,-188l156,188z"
   id="glyph574" />
<glyph
   unicode="Ś"
   horiz-adv-x="1098"
   d="M106,55l0,320C221,278 347,229 485,229C551,229 602,243 639,270C676,297 694,332 694,375C694,412 679,448 648,481C617,514 544,557 428,612C209,715 100,855 100,1032C100,1161 148,1264 243,1342C338,1419 464,1458 623,1458C763,1458 879,1440 971,1403l0,-299C875,1171 765,1204 641,1204C579,1204 530,1191 494,1164C458,1137 440,1102 440,1059C440,1016 454,980 483,950C511,920 571,883 662,840C803,773 901,706 954,639C1007,572 1034,494 1034,403C1034,271 987,167 892,90C797,13 658,-25 477,-25C328,-25 205,2 106,55M887,1890l-313,-323l-228,0l260,323z"
   id="glyph576" />
<glyph
   unicode="ś"
   horiz-adv-x="901"
   d="M94,27l0,256C198,221 296,190 387,190C487,190 537,221 537,283C537,310 525,333 501,350C477,367 425,391 344,422C251,457 186,499 149,546C112,593 94,652 94,723C94,822 133,901 211,960C289,1019 393,1049 524,1049C609,1049 693,1035 778,1008l0,-244C699,811 615,834 528,834C445,834 403,805 403,748C403,719 413,696 433,678C453,660 496,639 563,616C665,580 737,538 778,491C819,443 840,384 840,313C840,210 801,128 722,67C643,6 532,-25 391,-25C285,-25 186,-8 94,27M793,1509l-313,-323l-228,0l260,323z"
   id="glyph578" />
<glyph
   unicode="Ţ"
   horiz-adv-x="1200"
   d="M1171,1171l-409,0l0,-1171l-117,0l0,-82C769,-87 831,-142 831,-248C831,-386 725,-455 514,-455C483,-455 454,-454 426,-451l0,138C449,-317 473,-319 498,-319C580,-319 621,-295 621,-246C621,-202 584,-180 510,-180C501,-180 489,-181 473,-182l0,182l-35,0l0,1171l-407,0l0,263l1140,0z"
   id="glyph580" />
<glyph
   unicode="ţ"
   horiz-adv-x="797"
   d="M752,12C705,-13 637,-25 548,-25l-7,0l-11,1l0,-58C655,-87 717,-143 717,-248C717,-386 611,-455 399,-455C368,-455 339,-454 311,-451l0,138C334,-317 358,-319 383,-319C465,-319 506,-295 506,-246C506,-202 469,-180 395,-180C386,-180 374,-181 358,-182l0,197C257,68 207,171 207,322l0,469l-166,0l0,233l166,0l0,221l315,90l0,-311l230,0l0,-233l-230,0l0,-414C522,270 564,217 649,217C682,217 717,227 752,246z"
   id="glyph582" />
<glyph
   unicode="Ť"
   horiz-adv-x="1200"
   d="M1171,1171l-409,0l0,-1171l-324,0l0,1171l-407,0l0,263l1140,0M961,1892l-238,-325l-248,0l-235,325l205,0l155,-188l156,188z"
   id="glyph584" />
<glyph
   unicode="ť"
   horiz-adv-x="971"
   d="M752,12C705,-13 635,-25 541,-25C318,-25 207,91 207,322l0,469l-166,0l0,233l166,0l0,221l315,90l0,-311l230,0l0,-233l-230,0l0,-414C522,270 564,217 649,217C682,217 717,227 752,246M1114,1487l-168,-352l-194,0l90,352z"
   id="glyph586" />
<glyph
   unicode="Ů"
   horiz-adv-x="1481"
   d="M1333,621C1333,190 1132,-25 731,-25C342,-25 147,185 147,606l0,828l324,0l0,-832C471,370 562,254 743,254C921,254 1010,366 1010,590l0,844l323,0M736,1567C668,1567 612,1587 568,1627C523,1666 501,1718 501,1782C501,1849 524,1903 571,1943C617,1983 674,2003 741,2003C812,2003 870,1983 914,1944C958,1904 980,1852 980,1788C980,1723 956,1670 909,1629C861,1588 803,1567 736,1567M736,1880C672,1880 640,1849 640,1786C640,1723 672,1692 736,1692C766,1692 791,1701 810,1720C829,1738 839,1760 839,1786C839,1813 830,1836 811,1854C792,1871 767,1880 736,1880z"
   id="glyph588" />
<glyph
   unicode="ů"
   horiz-adv-x="1239"
   d="M1106,0l-315,0l0,156l-5,0C708,35 604,-25 473,-25C236,-25 117,119 117,406l0,618l315,0l0,-590C432,289 489,217 604,217C661,217 706,237 740,277C774,316 791,370 791,438l0,586l315,0M615,1186C547,1186 491,1206 447,1246C402,1285 380,1337 380,1401C380,1468 403,1522 450,1562C496,1602 553,1622 620,1622C691,1622 749,1602 793,1563C837,1523 859,1471 859,1407C859,1342 835,1289 788,1248C740,1207 682,1186 615,1186M615,1499C551,1499 519,1468 519,1405C519,1342 551,1311 615,1311C645,1311 670,1320 689,1339C708,1357 718,1379 718,1405C718,1432 709,1455 690,1473C671,1490 646,1499 615,1499z"
   id="glyph590" />
<glyph
   unicode="Ű"
   horiz-adv-x="1481"
   d="M1333,621C1333,190 1132,-25 731,-25C342,-25 147,185 147,606l0,828l324,0l0,-832C471,370 562,254 743,254C921,254 1010,366 1010,590l0,844l323,0M1221,1886l-252,-319l-210,0l213,319M843,1886l-248,-319l-211,0l211,319z"
   id="glyph592" />
<glyph
   unicode="ű"
   horiz-adv-x="1239"
   d="M1106,0l-315,0l0,156l-5,0C708,35 604,-25 473,-25C236,-25 117,119 117,406l0,618l315,0l0,-590C432,289 489,217 604,217C661,217 706,237 740,277C774,316 791,370 791,438l0,586l315,0M1090,1505l-252,-319l-210,0l213,319M712,1505l-248,-319l-211,0l211,319z"
   id="glyph594" />
<glyph
   unicode="Ź"
   horiz-adv-x="1243"
   d="M1196,0l-1155,0l0,186l735,985l-682,0l0,263l1100,0l0,-181l-719,-991l721,0M967,1890l-313,-323l-228,0l260,323z"
   id="glyph596" />
<glyph
   unicode="ź"
   horiz-adv-x="981"
   d="M944,0l-919,0l0,131l514,660l-463,0l0,233l864,0l0,-156l-487,-635l491,0M836,1509l-313,-323l-228,0l260,323z"
   id="glyph598" />
<glyph
   unicode="Ż"
   horiz-adv-x="1243"
   d="M1196,0l-1155,0l0,186l735,985l-682,0l0,263l1100,0l0,-181l-719,-991l721,0M641,1567C596,1567 560,1580 531,1607C502,1634 487,1666 487,1704C487,1744 502,1777 531,1802C560,1827 597,1839 641,1839C686,1839 722,1826 751,1801C779,1776 793,1743 793,1704C793,1665 779,1632 751,1606C722,1580 686,1567 641,1567z"
   id="glyph600" />
<glyph
   unicode="ż"
   horiz-adv-x="981"
   d="M944,0l-919,0l0,131l514,660l-463,0l0,233l864,0l0,-156l-487,-635l491,0M512,1186C467,1186 431,1199 402,1226C373,1253 358,1285 358,1323C358,1363 373,1396 402,1421C431,1446 468,1458 512,1458C557,1458 593,1445 622,1420C650,1395 664,1362 664,1323C664,1284 650,1251 622,1225C593,1199 557,1186 512,1186z"
   id="glyph602" />
<glyph
   unicode="Γ"
   horiz-adv-x="1048"
   d="M1019,1168l-532,0l0,-1168l-323,0l0,1434l855,0z"
   id="glyph604" />
<glyph
   unicode="Θ"
   horiz-adv-x="1553"
   d="M771,-25C566,-25 398,42 269,176C139,309 74,483 74,698C74,925 140,1108 271,1248C402,1388 575,1458 792,1458C997,1458 1162,1391 1289,1257C1416,1123 1479,946 1479,727C1479,502 1414,320 1283,182C1152,44 981,-25 771,-25M784,1179C671,1179 581,1137 515,1053C448,968 415,856 415,716C415,574 448,462 515,379C581,296 668,255 776,255C887,255 975,295 1040,375C1105,455 1138,566 1138,709C1138,858 1107,973 1044,1056C981,1138 894,1179 784,1179M1004,594l-453,0l0,244l453,0z"
   id="glyph606" />
<glyph
   unicode="Φ"
   horiz-adv-x="1670"
   d="M985,178l0,-198l-300,0l0,198l-23,0C489,178 348,232 239,340C130,447 75,584 75,750C75,912 131,1045 242,1148C353,1251 494,1303 663,1303l22,0l0,149l300,0l0,-150l23,0C1179,1302 1320,1251 1430,1149C1539,1047 1594,916 1594,756C1594,589 1539,451 1428,342C1317,233 1177,178 1007,178M985,1061l0,-637l19,0C1088,424 1155,453 1206,512C1256,570 1281,648 1281,747C1281,841 1256,917 1206,975C1155,1032 1088,1061 1004,1061M687,424l0,637l-18,0C584,1061 517,1032 466,973C415,914 390,838 390,745C390,646 415,568 466,511C516,453 583,424 668,424z"
   id="glyph608" />
<glyph
   unicode="α"
   horiz-adv-x="1304"
   d="M1266,1024l-214,-498l166,-526l-315,0l-47,214l-6,0C767,55 648,-25 492,-25C364,-25 262,21 187,114C111,206 73,329 73,483C73,651 117,787 205,892C293,997 409,1049 552,1049C717,1049 828,979 886,838l5,0l56,186M795,526C756,715 689,809 592,809C533,809 485,781 447,724C408,667 389,593 389,502C389,415 405,347 437,296C468,245 509,220 559,220C653,220 727,306 780,479z"
   id="glyph610" />
<glyph
   unicode="δ"
   horiz-adv-x="1253"
   d="M425,932C289,1015 221,1118 221,1240C221,1331 261,1403 341,1456C421,1509 526,1536 657,1536C770,1536 895,1510 1032,1459l0,-298C901,1250 784,1294 681,1294C589,1294 543,1265 543,1208C543,1181 559,1154 591,1128C623,1101 696,1057 811,995C1057,863 1180,696 1180,494C1180,337 1130,211 1031,117C931,22 793,-25 617,-25C452,-25 320,21 221,114C122,207 72,322 72,459C72,686 190,844 425,932M623,791C556,768 501,729 458,674C415,619 393,555 393,483C393,403 414,339 457,290C499,241 556,217 628,217C699,217 756,241 797,290C838,339 858,403 858,482C858,604 780,707 623,791z"
   id="glyph612" />
<glyph
   unicode="ε"
   horiz-adv-x="948"
   d="M883,254l0,-233C780,-10 658,-25 517,-25C375,-25 265,1 186,53C107,105 67,178 67,272C67,404 144,488 297,525l0,5C242,544 197,572 160,614C123,656 104,705 104,761C104,852 142,923 217,974C292,1024 398,1049 537,1049C648,1049 749,1035 839,1008l0,-232C742,816 656,836 580,836C477,836 426,803 426,736C426,658 494,619 631,619C676,619 715,621 748,626l0,-208C712,422 663,424 602,424C459,424 388,384 388,304C388,227 454,188 587,188C682,188 781,210 883,254z"
   id="glyph614" />
<glyph
   unicode="σ"
   horiz-adv-x="1256"
   d="M1238,796l-225,0C1085,705 1121,599 1121,478C1121,324 1075,202 984,111C892,20 766,-25 606,-25C442,-25 312,23 216,120C120,216 72,346 72,510C72,677 119,804 213,892C306,980 442,1024 621,1024l617,0M722,796l-72,0C480,796 395,696 395,497C395,410 414,342 452,292C490,242 540,217 603,217C665,217 713,243 748,295C782,347 799,419 799,511C799,618 773,713 722,796z"
   id="glyph616" />
<glyph
   unicode="τ"
   horiz-adv-x="1125"
   d="M1076,796l-359,0l0,-433C717,276 752,233 823,233C858,233 894,240 929,255l0,-241C878,-8 810,-19 723,-19C508,-19 400,93 400,316l0,480l-86,0C215,796 121,762 34,694l0,251C96,998 198,1024 341,1024l735,0z"
   id="glyph618" />
<glyph
   unicode="φ"
   horiz-adv-x="1538"
   d="M908,-25l0,-456l-285,0l0,456l-20,0C440,-25 311,24 216,121C120,218 72,347 72,510C72,713 129,884 243,1024l328,0C516,971 469,897 430,802C391,707 371,614 371,523C371,428 393,353 436,298C479,243 535,216 605,216l18,0l0,455C623,792 656,886 721,951C786,1016 878,1049 998,1049C1145,1049 1259,1001 1342,904C1425,807 1466,671 1466,496C1466,339 1418,213 1321,118C1224,23 1093,-25 929,-25M908,216l25,0C1002,216 1058,242 1101,295C1144,348 1165,421 1165,515C1165,606 1150,677 1120,730C1090,782 1051,808 1003,808C940,808 908,769 908,690z"
   id="glyph620" />
<glyph
   unicode="‗"
   horiz-adv-x="850"
   d="M850,-297l-850,0l0,119l850,0M850,-578l-850,0l0,119l850,0z"
   id="glyph622" />
<glyph
   unicode="‼"
   horiz-adv-x="1188"
   d="M500,1434l-39,-988l-256,0l-37,988M336,-23C283,-23 239,-7 204,26C169,58 152,97 152,143C152,191 170,230 205,261C240,292 283,307 336,307C389,307 433,292 467,261C501,230 518,190 518,143C518,95 501,55 468,24C434,-7 390,-23 336,-23M1018,1434l-39,-988l-256,0l-37,988M854,-23C801,-23 757,-7 722,26C687,58 670,97 670,143C670,191 688,230 723,261C758,292 801,307 854,307C907,307 951,292 985,261C1019,230 1036,190 1036,143C1036,95 1019,55 986,24C952,-7 908,-23 854,-23z"
   id="glyph624" />
<glyph
   unicode="ⁿ"
   horiz-adv-x="912"
   d="M803,717l-213,0l0,442C590,1252 552,1298 477,1298C436,1298 400,1282 369,1251C338,1220 322,1184 322,1145l0,-428l-213,0l0,719l208,0l0,-99C366,1415 442,1454 545,1454C717,1454 803,1360 803,1171z"
   id="glyph626" />
<glyph
   unicode="₧"
   horiz-adv-x="2681"
   d="M487,494l0,-494l-323,0l0,1434l424,0C949,1434 1130,1282 1130,977C1130,833 1078,717 975,628C871,539 732,494 559,494M487,1186l0,-447l45,0C705,739 791,814 791,965C791,1112 705,1186 532,1186M1812,12C1765,-13 1695,-25 1602,-25C1494,-25 1415,1 1364,54C1313,106 1288,188 1288,301l0,387l-145,0l0,213l145,0l0,221l295,90l0,-311l229,0l0,-213l-229,0l0,-332C1583,250 1625,197 1710,197C1744,197 1778,206 1812,225M1872,27l0,235C1975,201 2072,170 2165,170C2251,170 2294,201 2294,262C2294,292 2258,320 2185,346C2079,383 2009,413 1976,435C1943,457 1917,484 1899,517C1881,549 1872,586 1872,627C1872,721 1906,794 1973,847C2040,900 2132,926 2249,926C2342,926 2430,912 2515,885l0,-223C2437,708 2354,731 2265,731C2196,731 2161,706 2161,657C2161,631 2197,605 2269,578C2370,541 2437,510 2471,487C2505,464 2531,436 2549,403C2567,370 2576,334 2576,293C2576,81 2440,-25 2169,-25C2063,-25 1964,-8 1872,27z"
   id="glyph628" />
<glyph
   unicode="Ĳ"
   horiz-adv-x="1561"
   d="M487,0l-323,0l0,1434l323,0M1411,569C1411,377 1367,230 1278,128C1189,26 1060,-25 891,-25C816,-25 746,-12 682,14l0,303C737,275 799,254 868,254C1015,254 1089,363 1089,582l0,852l322,0z"
   id="glyph630" />
<glyph
   unicode="ĳ"
   horiz-adv-x="1164"
   d="M293,1186C240,1186 196,1202 162,1234C128,1265 111,1304 111,1350C111,1397 128,1436 162,1466C196,1496 240,1511 293,1511C347,1511 391,1496 425,1466C458,1436 475,1397 475,1350C475,1302 458,1263 425,1232C391,1201 347,1186 293,1186M449,0l-316,0l0,1024l316,0M874,1186C821,1186 777,1202 743,1234C709,1265 692,1304 692,1350C692,1397 709,1436 743,1466C777,1496 821,1511 874,1511C928,1511 972,1496 1006,1466C1039,1436 1056,1397 1056,1350C1056,1302 1039,1263 1006,1232C972,1201 928,1186 874,1186M1030,18C1030,-133 993,-254 919,-345C845,-436 738,-481 599,-481C553,-481 503,-471 448,-451l0,248C492,-228 531,-240 565,-240C664,-240 714,-162 714,-6l0,1030l316,0z"
   id="glyph632" />
<glyph
   unicode="ŉ"
   horiz-adv-x="1403"
   d="M326,1468l-193,-444l-194,0l114,444M1286,0l-315,0l0,569C971,728 914,807 801,807C745,807 700,786 665,744C630,701 612,648 612,584l0,-584l-315,0l0,1024l315,0l0,-162l4,0C691,987 801,1049 946,1049C1173,1049 1286,908 1286,627z"
   id="glyph634" />
<glyph
   unicode="′"
   horiz-adv-x="234"
   d="M175,717l-52,-223l-58,0l43,223z"
   id="glyph636" />
<glyph
   unicode="″"
   horiz-adv-x="386"
   d="M322,717l-53,-223l-58,0l43,223M180,717l-52,-223l-58,0l43,223z"
   id="glyph638" />
<glyph
   unicode="℅"
   horiz-adv-x="1779"
   d="M800,1413l-40,-173C721,1270 673,1285 616,1285C553,1285 501,1258 458,1205C415,1152 394,1091 394,1023C394,922 439,872 529,872C584,872 641,889 698,924l-35,-169C598,720 528,703 454,703C365,703 296,729 247,782C197,835 172,907 172,998C172,1127 213,1235 296,1323C378,1410 484,1454 614,1454C691,1454 753,1440 800,1413M1598,1434l-1238,-1434l-245,0l1239,1434M1218,-20C1115,-20 1036,9 979,67C922,125 894,199 894,289C894,406 931,509 1004,596C1077,683 1176,726 1302,726C1401,726 1478,699 1534,645C1589,590 1617,516 1617,421C1617,302 1581,198 1510,111C1438,24 1341,-20 1218,-20M1294,553C1239,553 1195,526 1161,472C1127,418 1110,357 1110,289C1110,198 1148,153 1224,153C1276,153 1319,179 1352,232C1385,285 1402,346 1402,415C1402,507 1366,553 1294,553z"
   id="glyph640" />
<glyph
   unicode="ℓ"
   horiz-adv-x="662"
   d="M360,666l0,-416C360,190 365,153 375,140C384,126 399,119 418,119C432,119 450,124 473,133C496,142 543,173 616,225l0,-162C541,4 466,-25 391,-25C259,-25 193,56 193,217l0,225l-80,-98l-99,78l179,235l0,455C193,1261 213,1361 253,1413C293,1465 351,1491 426,1491C489,1491 541,1470 583,1427C624,1384 645,1325 645,1251C645,1182 622,1101 577,1009C531,916 459,802 360,666M360,899C421,1005 461,1080 479,1123C497,1166 506,1209 506,1251C506,1286 499,1314 486,1337C472,1359 453,1370 430,1370C412,1370 398,1364 389,1352C379,1339 372,1314 367,1277C362,1240 360,1189 360,1126z"
   id="glyph642" />
<glyph
   unicode="□"
   horiz-adv-x="1237"
   d="M1090,0l-945,0l0,944l945,0M1014,76l0,792l-793,0l0,-792z"
   id="glyph644" />
<glyph
   unicode="▪"
   horiz-adv-x="725"
   d="M594,444l-463,0l0,463l463,0z"
   id="glyph646" />
<glyph
   unicode="▫"
   horiz-adv-x="725"
   d="M594,444l-463,0l0,463l463,0M518,520l0,311l-311,0l0,-311z"
   id="glyph648" />
<glyph
   unicode="●"
   horiz-adv-x="1237"
   d="M621,137C500,137 396,180 309,265C222,350 178,454 178,578C178,653 198,725 237,796C276,867 330,921 400,960C469,999 542,1018 618,1018C696,1018 771,997 843,956C914,915 968,859 1005,789C1041,718 1059,648 1059,578C1059,458 1017,355 932,268C847,181 743,137 621,137z"
   id="glyph650" />
<glyph
   unicode="◦"
   horiz-adv-x="725"
   d="M362,426C293,426 234,451 186,500C137,549 113,608 113,678C113,746 137,805 186,854C235,903 293,928 362,928C432,928 492,904 541,855C590,806 614,747 614,678C614,608 590,549 541,500C492,451 432,426 362,426M362,852C313,852 272,835 239,800C205,765 188,724 188,678C188,629 205,587 240,553C274,519 316,502 365,502C412,502 453,519 488,554C522,588 539,629 539,678C539,723 523,763 490,799C457,834 414,852 362,852z"
   id="glyph652" />
<glyph
   unicode="Ā"
   horiz-adv-x="1440"
   d="M1425,0l-352,0l-102,319l-510,0l-101,-319l-350,0l522,1434l383,0M897,567l-154,482C732,1085 724,1128 719,1178l-8,0C708,1136 699,1094 686,1053l-156,-486M1013,1567l-586,0l0,172l586,0z"
   id="glyph654" />
<glyph
   unicode="ā"
   horiz-adv-x="1102"
   d="M985,0l-299,0l0,147l-4,0C613,32 512,-25 377,-25C278,-25 200,3 143,60C86,116 57,191 57,285C57,484 175,598 410,629l278,37C688,778 627,834 506,834C384,834 268,798 158,725l0,238C202,986 262,1006 339,1023C415,1040 484,1049 547,1049C839,1049 985,903 985,612M688,416l0,69l-186,-24C399,448 348,401 348,322C348,286 361,257 386,234C411,211 444,199 487,199C546,199 595,220 632,261C669,302 688,353 688,416M864,1186l-586,0l0,172l586,0z"
   id="glyph656" />
<glyph
   unicode="Ĉ"
   horiz-adv-x="1278"
   d="M1192,51C1087,0 951,-25 782,-25C562,-25 389,40 263,169C137,298 74,471 74,686C74,915 145,1101 287,1244C428,1387 612,1458 838,1458C978,1458 1096,1440 1192,1405l0,-311C1096,1151 987,1180 864,1180C729,1180 621,1138 538,1053C455,968 414,854 414,709C414,570 453,460 531,378C609,295 714,254 846,254C972,254 1087,285 1192,346M1159,1567l-207,0l-158,188l-147,-188l-207,0l235,325l248,0z"
   id="glyph658" />
<glyph
   unicode="ĉ"
   horiz-adv-x="983"
   d="M909,37C838,-4 735,-25 600,-25C443,-25 315,23 218,118C121,213 72,336 72,487C72,661 124,798 229,899C333,999 472,1049 647,1049C768,1049 855,1033 909,1001l0,-268C843,782 769,807 688,807C597,807 526,781 473,728C420,675 393,601 393,508C393,417 418,346 469,295C520,243 589,217 678,217C757,217 834,242 909,291M953,1186l-207,0l-158,188l-147,-188l-207,0l235,325l248,0z"
   id="glyph660" />
<glyph
   unicode="Ċ"
   horiz-adv-x="1278"
   d="M1192,51C1087,0 951,-25 782,-25C562,-25 389,40 263,169C137,298 74,471 74,686C74,915 145,1101 287,1244C428,1387 612,1458 838,1458C978,1458 1096,1440 1192,1405l0,-311C1096,1151 987,1180 864,1180C729,1180 621,1138 538,1053C455,968 414,854 414,709C414,570 453,460 531,378C609,295 714,254 846,254C972,254 1087,285 1192,346M819,1567C774,1567 738,1580 709,1607C680,1634 665,1666 665,1704C665,1744 680,1777 709,1802C738,1827 775,1839 819,1839C864,1839 900,1826 929,1801C957,1776 971,1743 971,1704C971,1665 957,1632 929,1606C900,1580 864,1567 819,1567z"
   id="glyph662" />
<glyph
   unicode="ċ"
   horiz-adv-x="983"
   d="M909,37C838,-4 735,-25 600,-25C443,-25 315,23 218,118C121,213 72,336 72,487C72,661 124,798 229,899C333,999 472,1049 647,1049C768,1049 855,1033 909,1001l0,-268C843,782 769,807 688,807C597,807 526,781 473,728C420,675 393,601 393,508C393,417 418,346 469,295C520,243 589,217 678,217C757,217 834,242 909,291M610,1186C565,1186 529,1199 500,1226C471,1253 456,1285 456,1323C456,1363 471,1396 500,1421C529,1446 566,1458 610,1458C655,1458 691,1445 720,1420C748,1395 762,1362 762,1323C762,1284 748,1251 720,1225C691,1199 655,1186 610,1186z"
   id="glyph664" />
<glyph
   unicode="Ē"
   horiz-adv-x="1090"
   d="M1024,0l-860,0l0,1434l827,0l0,-263l-504,0l0,-319l469,0l0,-262l-469,0l0,-328l537,0M864,1567l-586,0l0,172l586,0z"
   id="glyph666" />
<glyph
   unicode="ē"
   horiz-adv-x="1108"
   d="M1053,422l-668,0C396,273 489,199 666,199C779,199 878,226 963,279l0,-228C868,0 745,-25 594,-25C429,-25 300,21 209,113C118,204 72,332 72,496C72,666 121,801 220,900C319,999 440,1049 584,1049C733,1049 849,1005 931,916C1012,827 1053,707 1053,555M760,616C760,763 701,836 582,836C531,836 488,815 451,773C414,731 391,679 383,616M867,1186l-586,0l0,172l586,0z"
   id="glyph668" />
<glyph
   unicode="Ĕ"
   horiz-adv-x="1090"
   d="M1024,0l-860,0l0,1434l827,0l0,-263l-504,0l0,-319l469,0l0,-262l-469,0l0,-328l537,0M926,1874C918,1780 884,1705 824,1650C763,1595 684,1567 586,1567C489,1567 409,1596 348,1653C287,1710 255,1783 252,1874l179,0C442,1784 495,1739 590,1739C681,1739 733,1784 746,1874z"
   id="glyph670" />
<glyph
   unicode="ĕ"
   horiz-adv-x="1108"
   d="M1053,422l-668,0C396,273 489,199 666,199C779,199 878,226 963,279l0,-228C868,0 745,-25 594,-25C429,-25 300,21 209,113C118,204 72,332 72,496C72,666 121,801 220,900C319,999 440,1049 584,1049C733,1049 849,1005 931,916C1012,827 1053,707 1053,555M760,616C760,763 701,836 582,836C531,836 488,815 451,773C414,731 391,679 383,616M911,1493C903,1399 869,1324 809,1269C748,1214 669,1186 571,1186C474,1186 394,1215 333,1272C272,1329 240,1402 237,1493l179,0C427,1403 480,1358 575,1358C666,1358 718,1403 731,1493z"
   id="glyph672" />
<glyph
   unicode="Ė"
   horiz-adv-x="1090"
   d="M1024,0l-860,0l0,1434l827,0l0,-263l-504,0l0,-319l469,0l0,-262l-469,0l0,-328l537,0M589,1567C544,1567 508,1580 479,1607C450,1634 435,1666 435,1704C435,1744 450,1777 479,1802C508,1827 545,1839 589,1839C634,1839 670,1826 699,1801C727,1776 741,1743 741,1704C741,1665 727,1632 699,1606C670,1580 634,1567 589,1567z"
   id="glyph674" />
<glyph
   unicode="ė"
   horiz-adv-x="1108"
   d="M1053,422l-668,0C396,273 489,199 666,199C779,199 878,226 963,279l0,-228C868,0 745,-25 594,-25C429,-25 300,21 209,113C118,204 72,332 72,496C72,666 121,801 220,900C319,999 440,1049 584,1049C733,1049 849,1005 931,916C1012,827 1053,707 1053,555M760,616C760,763 701,836 582,836C531,836 488,815 451,773C414,731 391,679 383,616M596,1186C551,1186 515,1199 486,1226C457,1253 442,1285 442,1323C442,1363 457,1396 486,1421C515,1446 552,1458 596,1458C641,1458 677,1445 706,1420C734,1395 748,1362 748,1323C748,1284 734,1251 706,1225C677,1199 641,1186 596,1186z"
   id="glyph676" />
<glyph
   unicode="Ĝ"
   horiz-adv-x="1456"
   d="M1341,96C1201,15 1027,-25 819,-25C588,-25 407,39 274,167C141,294 74,470 74,694C74,919 147,1103 292,1245C437,1387 631,1458 872,1458C1024,1458 1158,1437 1274,1395l0,-303C1163,1156 1028,1188 868,1188C734,1188 625,1145 541,1058C456,971 414,854 414,709C414,562 452,448 528,367C603,286 705,246 834,246C911,246 973,257 1018,279l0,280l-287,0l0,258l610,0M1196,1567l-207,0l-158,188l-147,-188l-207,0l235,325l248,0z"
   id="glyph678" />
<glyph
   unicode="ĝ"
   horiz-adv-x="1268"
   d="M1137,117C1137,-73 1082,-220 972,-324C862,-429 703,-481 494,-481C356,-481 247,-461 166,-422l0,266C271,-217 378,-248 485,-248C592,-248 674,-220 733,-163C792,-107 821,-31 821,66l0,81l-4,0C745,32 639,-25 498,-25C367,-25 264,21 187,113C110,205 72,328 72,483C72,656 115,794 200,896C285,998 398,1049 537,1049C662,1049 755,1001 817,905l4,0l0,119l316,0M825,492l0,81C825,638 806,693 768,739C729,784 679,807 618,807C548,807 493,780 453,725C413,670 393,593 393,494C393,409 412,341 450,292C488,242 540,217 606,217C671,217 724,242 765,293C805,343 825,409 825,492M993,1186l-207,0l-158,188l-147,-188l-207,0l235,325l248,0z"
   id="glyph680" />
<glyph
   unicode="Ġ"
   horiz-adv-x="1456"
   d="M1341,96C1201,15 1027,-25 819,-25C588,-25 407,39 274,167C141,294 74,470 74,694C74,919 147,1103 292,1245C437,1387 631,1458 872,1458C1024,1458 1158,1437 1274,1395l0,-303C1163,1156 1028,1188 868,1188C734,1188 625,1145 541,1058C456,971 414,854 414,709C414,562 452,448 528,367C603,286 705,246 834,246C911,246 973,257 1018,279l0,280l-287,0l0,258l610,0M819,1567C774,1567 738,1580 709,1607C680,1634 665,1666 665,1704C665,1744 680,1777 709,1802C738,1827 775,1839 819,1839C864,1839 900,1826 929,1801C957,1776 971,1743 971,1704C971,1665 957,1632 929,1606C900,1580 864,1567 819,1567z"
   id="glyph682" />
<glyph
   unicode="ġ"
   horiz-adv-x="1268"
   d="M1137,117C1137,-73 1082,-220 972,-324C862,-429 703,-481 494,-481C356,-481 247,-461 166,-422l0,266C271,-217 378,-248 485,-248C592,-248 674,-220 733,-163C792,-107 821,-31 821,66l0,81l-4,0C745,32 639,-25 498,-25C367,-25 264,21 187,113C110,205 72,328 72,483C72,656 115,794 200,896C285,998 398,1049 537,1049C662,1049 755,1001 817,905l4,0l0,119l316,0M825,492l0,81C825,638 806,693 768,739C729,784 679,807 618,807C548,807 493,780 453,725C413,670 393,593 393,494C393,409 412,341 450,292C488,242 540,217 606,217C671,217 724,242 765,293C805,343 825,409 825,492M634,1186C589,1186 553,1199 524,1226C495,1253 480,1285 480,1323C480,1363 495,1396 524,1421C553,1446 590,1458 634,1458C679,1458 715,1445 744,1420C772,1395 786,1362 786,1323C786,1284 772,1251 744,1225C715,1199 679,1186 634,1186z"
   id="glyph684" />
<glyph
   unicode="Ģ"
   horiz-adv-x="1456"
   d="M1341,96C1201,15 1027,-25 819,-25C588,-25 407,39 274,167C141,294 74,470 74,694C74,919 147,1103 292,1245C437,1387 631,1458 872,1458C1024,1458 1158,1437 1274,1395l0,-303C1163,1156 1028,1188 868,1188C734,1188 625,1145 541,1058C456,971 414,854 414,709C414,562 452,448 528,367C603,286 705,246 834,246C911,246 973,257 1018,279l0,280l-287,0l0,258l610,0M972,-111l-168,-352l-194,0l90,352z"
   id="glyph686" />
<glyph
   unicode="ģ"
   horiz-adv-x="1268"
   d="M821,1538l-90,-352l-272,0l168,352M1137,117C1137,-73 1082,-220 972,-324C862,-429 703,-481 494,-481C356,-481 247,-461 166,-422l0,266C271,-217 378,-248 485,-248C592,-248 674,-220 733,-163C792,-107 821,-31 821,66l0,81l-4,0C745,32 639,-25 498,-25C367,-25 264,21 187,113C110,205 72,328 72,483C72,656 115,794 200,896C285,998 398,1049 537,1049C662,1049 755,1001 817,905l4,0l0,119l316,0M825,492l0,81C825,638 806,693 768,739C729,784 679,807 618,807C548,807 493,780 453,725C413,670 393,593 393,494C393,409 412,341 450,292C488,242 540,217 606,217C671,217 724,242 765,293C805,343 825,409 825,492z"
   id="glyph688" />
<glyph
   unicode="Ĥ"
   horiz-adv-x="1569"
   d="M1405,0l-324,0l0,584l-594,0l0,-584l-323,0l0,1434l323,0l0,-572l594,0l0,572l324,0M1144,1567l-207,0l-158,188l-147,-188l-207,0l235,325l248,0z"
   id="glyph690" />
<glyph
   unicode="ĥ"
   horiz-adv-x="1233"
   d="M1116,0l-315,0l0,582C801,732 746,807 637,807C581,807 536,786 501,744C466,702 449,649 449,584l0,-584l-316,0l0,1516l316,0l0,-644l4,0C530,990 635,1049 768,1049C1000,1049 1116,909 1116,629M1012,1567l-207,0l-158,188l-147,-188l-207,0l235,325l248,0z"
   id="glyph692" />
<glyph
   unicode="Ħ"
   horiz-adv-x="1569"
   d="M1569,1018l-164,0l0,-1018l-324,0l0,584l-594,0l0,-584l-323,0l0,1018l-164,0l0,205l164,0l0,211l323,0l0,-211l594,0l0,211l324,0l0,-211l164,0M1081,862l0,156l-594,0l0,-156z"
   id="glyph694" />
<glyph
   unicode="ħ"
   horiz-adv-x="1262"
   d="M1149,0l-311,0l0,553C838,703 783,778 674,778C617,778 571,758 537,718C502,678 485,625 485,559l0,-559l-315,0l0,1171l-143,0l0,205l143,0l0,140l315,0l0,-140l330,0l0,-205l-330,0l0,-321l4,0C566,967 671,1026 805,1026C1034,1026 1149,886 1149,606z"
   id="glyph696" />
<glyph
   unicode="Ĩ"
   horiz-adv-x="649"
   d="M487,0l-323,0l0,1434l323,0M684,1860C684,1767 666,1695 629,1644C592,1593 541,1567 477,1567C420,1567 364,1581 309,1610C250,1641 209,1657 186,1657C133,1657 106,1621 106,1549l-141,0C-35,1642 -17,1714 20,1765C57,1816 108,1842 174,1842C228,1842 284,1826 342,1793C395,1764 435,1749 462,1749C514,1749 540,1786 540,1860z"
   id="glyph698" />
<glyph
   unicode="ĩ"
   horiz-adv-x="582"
   d="M449,0l-316,0l0,1024l316,0M650,1497C650,1404 632,1332 595,1281C558,1230 507,1204 443,1204C386,1204 330,1218 275,1247C216,1278 175,1294 152,1294C99,1294 72,1258 72,1186l-141,0C-69,1279 -51,1351 -14,1402C23,1453 74,1479 140,1479C194,1479 250,1463 308,1430C361,1401 401,1386 428,1386C480,1386 506,1423 506,1497z"
   id="glyph700" />
<glyph
   unicode="Ī"
   horiz-adv-x="649"
   d="M487,0l-323,0l0,1434l323,0M617,1567l-586,0l0,172l586,0z"
   id="glyph702" />
<glyph
   unicode="ī"
   horiz-adv-x="582"
   d="M449,0l-316,0l0,1024l316,0M584,1186l-586,0l0,172l586,0z"
   id="glyph704" />
<glyph
   unicode="Ĭ"
   horiz-adv-x="649"
   d="M487,0l-323,0l0,1434l323,0M662,1874C654,1780 620,1705 560,1650C499,1595 420,1567 322,1567C225,1567 145,1596 84,1653C23,1710 -9,1783 -12,1874l179,0C178,1784 231,1739 326,1739C417,1739 469,1784 482,1874z"
   id="glyph706" />
<glyph
   unicode="ĭ"
   horiz-adv-x="582"
   d="M449,0l-316,0l0,1024l316,0M628,1493C620,1399 586,1324 526,1269C465,1214 386,1186 288,1186C191,1186 111,1215 50,1272C-11,1329 -43,1402 -46,1493l179,0C144,1403 197,1358 292,1358C383,1358 435,1403 448,1493z"
   id="glyph708" />
<glyph
   unicode="Į"
   horiz-adv-x="649"
   d="M506,-323C455,-340 403,-349 352,-349C295,-349 250,-333 215,-300C180,-268 162,-226 162,-174C162,-118 186,-60 235,0l-71,0l0,1434l323,0l0,-1434l-98,0C350,-60 330,-113 330,-160C330,-195 349,-213 388,-213C420,-213 459,-204 506,-187z"
   id="glyph710" />
<glyph
   unicode="į"
   horiz-adv-x="582"
   d="M293,1186C240,1186 196,1202 162,1234C128,1265 111,1304 111,1350C111,1397 128,1436 162,1466C196,1496 240,1511 293,1511C347,1511 391,1496 425,1466C458,1436 475,1397 475,1350C475,1302 458,1263 425,1232C391,1201 347,1186 293,1186M475,-323C424,-340 372,-349 321,-349C264,-349 219,-333 184,-300C149,-268 131,-226 131,-174C131,-117 155,-59 203,0l-70,0l0,1024l316,0l0,-1024l-91,0C319,-60 299,-113 299,-160C299,-195 318,-213 356,-213C389,-213 428,-204 475,-187z"
   id="glyph712" />
<glyph
   unicode="Ĵ"
   horiz-adv-x="912"
   d="M762,569C762,377 718,230 629,128C540,26 411,-25 242,-25C167,-25 97,-12 33,14l0,303C88,275 150,254 219,254C366,254 440,363 440,582l0,852l322,0M959,1567l-207,0l-158,188l-147,-188l-207,0l235,325l248,0z"
   id="glyph714" />
<glyph
   unicode="ĵ"
   horiz-adv-x="582"
   d="M449,18C449,-133 412,-254 338,-345C264,-436 157,-481 18,-481C-28,-481 -78,-471 -133,-451l0,248C-89,-228 -50,-240 -16,-240C83,-240 133,-162 133,-6l0,1030l316,0M649,1186l-207,0l-158,188l-147,-188l-207,0l235,325l248,0z"
   id="glyph716" />
<glyph
   unicode="Ķ"
   horiz-adv-x="1329"
   d="M1356,0l-408,0l-418,623C522,635 509,661 492,702l-5,0l0,-702l-323,0l0,1434l323,0l0,-678l5,0C500,775 513,801 532,836l396,598l385,0l-500,-684M886,-111l-168,-352l-194,0l90,352z"
   id="glyph718" />
<glyph
   unicode="ķ"
   horiz-adv-x="1145"
   d="M1159,0l-379,0l-327,508l-4,0l0,-508l-316,0l0,1516l316,0l0,-965l4,0l305,473l375,0l-367,-481M765,-111l-168,-352l-194,0l90,352z"
   id="glyph720" />
<glyph
   unicode="ĸ"
   horiz-adv-x="1145"
   d="M1159,0l-379,0l-327,508l-4,0l0,-508l-316,0l0,1024l316,0l0,-473l4,0l305,473l375,0l-367,-481z"
   id="glyph722" />
<glyph
   unicode="Ļ"
   horiz-adv-x="1047"
   d="M1018,0l-379,0l0,-82C763,-87 825,-142 825,-248C825,-386 719,-455 508,-455C477,-455 448,-454 420,-451l0,138C443,-317 467,-319 492,-319C573,-319 614,-295 614,-246C614,-202 577,-180 504,-180C495,-180 483,-181 467,-182l0,182l-303,0l0,1434l323,0l0,-1172l531,0z"
   id="glyph724" />
<glyph
   unicode="ļ"
   horiz-adv-x="582"
   d="M127,-451l0,138C150,-317 174,-319 199,-319C281,-319 322,-295 322,-246C322,-202 285,-180 211,-180C202,-180 190,-181 174,-182l0,182l-41,0l0,1516l316,0l0,-1516l-103,0l0,-82C470,-87 532,-142 532,-248C532,-386 426,-455 215,-455C184,-455 155,-454 127,-451z"
   id="glyph726" />
<glyph
   unicode="Ņ"
   horiz-adv-x="1618"
   d="M1454,0l-326,0l-591,901C502,954 478,993 465,1020l-4,0C466,969 469,892 469,788l0,-788l-305,0l0,1434l348,0l569,-873C1107,522 1131,483 1153,444l4,0C1152,477 1149,543 1149,641l0,793l305,0M990,-111l-168,-352l-194,0l90,352z"
   id="glyph728" />
<glyph
   unicode="ņ"
   horiz-adv-x="1239"
   d="M1122,0l-315,0l0,569C807,728 750,807 637,807C582,807 537,786 502,744C467,702 449,649 449,584l0,-584l-316,0l0,1024l316,0l0,-162l4,0C528,987 638,1049 782,1049C1009,1049 1122,908 1122,627M800,-111l-168,-352l-194,0l90,352z"
   id="glyph730" />
<glyph
   unicode="Ŋ"
   horiz-adv-x="1618"
   d="M1454,80C1454,-253 1322,-420 1057,-420C978,-420 910,-410 854,-389l0,248C898,-166 944,-178 993,-178C1094,-178 1146,-118 1149,3l-612,898C506,946 482,986 465,1020l-4,0C466,969 469,892 469,788l0,-788l-305,0l0,1434l348,0l569,-840C1119,538 1143,499 1153,477l4,0C1152,510 1149,576 1149,674l0,760l305,0z"
   id="glyph732" />
<glyph
   unicode="ŋ"
   horiz-adv-x="1239"
   d="M1122,63C1122,-260 986,-422 713,-422C654,-422 597,-412 541,-391l0,248C585,-168 624,-180 657,-180C757,-180 807,-102 807,53l0,516C807,728 750,807 637,807C582,807 537,786 502,744C467,702 449,649 449,584l0,-584l-316,0l0,1024l316,0l0,-162l4,0C528,987 638,1049 782,1049C1009,1049 1122,908 1122,627z"
   id="glyph734" />
<glyph
   unicode="Ō"
   horiz-adv-x="1553"
   d="M770,-25C565,-25 397,42 268,176C139,309 74,483 74,698C74,925 140,1108 271,1248C402,1388 576,1458 793,1458C998,1458 1163,1391 1290,1257C1416,1123 1479,946 1479,727C1479,502 1414,320 1283,182C1152,44 981,-25 770,-25M784,1180C671,1180 581,1138 514,1053C447,968 414,855 414,715C414,573 447,461 514,378C581,295 668,254 776,254C887,254 976,294 1041,375C1106,455 1139,566 1139,709C1139,858 1107,973 1044,1056C981,1139 894,1180 784,1180M1069,1567l-586,0l0,172l586,0z"
   id="glyph736" />
<glyph
   unicode="ō"
   horiz-adv-x="1252"
   d="M621,-25C450,-25 316,23 219,119C121,214 72,344 72,508C72,677 123,810 224,906C325,1001 462,1049 635,1049C805,1049 938,1001 1035,906C1132,810 1180,683 1180,526C1180,356 1130,222 1031,123C931,24 794,-25 621,-25M629,807C554,807 496,781 455,730C414,679 393,606 393,512C393,315 472,217 631,217C782,217 858,318 858,520C858,711 782,807 629,807M919,1186l-586,0l0,172l586,0z"
   id="glyph738" />
<glyph
   unicode="Ŏ"
   horiz-adv-x="1553"
   d="M770,-25C565,-25 397,42 268,176C139,309 74,483 74,698C74,925 140,1108 271,1248C402,1388 576,1458 793,1458C998,1458 1163,1391 1290,1257C1416,1123 1479,946 1479,727C1479,502 1414,320 1283,182C1152,44 981,-25 770,-25M784,1180C671,1180 581,1138 514,1053C447,968 414,855 414,715C414,573 447,461 514,378C581,295 668,254 776,254C887,254 976,294 1041,375C1106,455 1139,566 1139,709C1139,858 1107,973 1044,1056C981,1139 894,1180 784,1180M1113,1874C1105,1780 1071,1705 1011,1650C950,1595 871,1567 773,1567C676,1567 596,1596 535,1653C474,1710 442,1783 439,1874l179,0C629,1784 682,1739 777,1739C868,1739 920,1784 933,1874z"
   id="glyph740" />
<glyph
   unicode="ŏ"
   horiz-adv-x="1252"
   d="M621,-25C450,-25 316,23 219,119C121,214 72,344 72,508C72,677 123,810 224,906C325,1001 462,1049 635,1049C805,1049 938,1001 1035,906C1132,810 1180,683 1180,526C1180,356 1130,222 1031,123C931,24 794,-25 621,-25M629,807C554,807 496,781 455,730C414,679 393,606 393,512C393,315 472,217 631,217C782,217 858,318 858,520C858,711 782,807 629,807M963,1493C955,1399 921,1324 861,1269C800,1214 721,1186 623,1186C526,1186 446,1215 385,1272C324,1329 292,1402 289,1493l179,0C479,1403 532,1358 627,1358C718,1358 770,1403 783,1493z"
   id="glyph742" />
<glyph
   unicode="Ŗ"
   horiz-adv-x="1303"
   d="M1266,0l-371,0l-145,369C703,489 638,549 557,549l-70,0l0,-549l-323,0l0,1434l512,0C1024,1434 1198,1304 1198,1044C1198,945 1170,861 1113,792C1056,723 976,676 874,649l0,-4C958,618 1026,545 1079,424M487,1192l0,-399l140,0C696,793 752,813 795,854C837,894 858,944 858,1004C858,1129 783,1192 633,1192M849,-111l-168,-352l-194,0l90,352z"
   id="glyph744" />
<glyph
   unicode="ŗ"
   horiz-adv-x="815"
   d="M801,739C763,760 719,770 668,770C599,770 546,745 507,695C468,644 449,576 449,489l0,-489l-316,0l0,1024l316,0l0,-190l4,0C503,973 593,1042 723,1042C756,1042 782,1038 801,1030M593,-111l-168,-352l-194,0l90,352z"
   id="glyph746" />
<glyph
   unicode="Ŝ"
   horiz-adv-x="1098"
   d="M106,55l0,320C221,278 347,229 485,229C551,229 602,243 639,270C676,297 694,332 694,375C694,412 679,448 648,481C617,514 544,557 428,612C209,715 100,855 100,1032C100,1161 148,1264 243,1342C338,1419 464,1458 623,1458C763,1458 879,1440 971,1403l0,-299C875,1171 765,1204 641,1204C579,1204 530,1191 494,1164C458,1137 440,1102 440,1059C440,1016 454,980 483,950C511,920 571,883 662,840C803,773 901,706 954,639C1007,572 1034,494 1034,403C1034,271 987,167 892,90C797,13 658,-25 477,-25C328,-25 205,2 106,55M930,1567l-207,0l-158,188l-147,-188l-207,0l235,325l248,0z"
   id="glyph748" />
<glyph
   unicode="ŝ"
   horiz-adv-x="901"
   d="M94,27l0,256C198,221 296,190 387,190C487,190 537,221 537,283C537,310 525,333 501,350C477,367 425,391 344,422C251,457 186,499 149,546C112,593 94,652 94,723C94,822 133,901 211,960C289,1019 393,1049 524,1049C609,1049 693,1035 778,1008l0,-244C699,811 615,834 528,834C445,834 403,805 403,748C403,719 413,696 433,678C453,660 496,639 563,616C665,580 737,538 778,491C819,443 840,384 840,313C840,210 801,128 722,67C643,6 532,-25 391,-25C285,-25 186,-8 94,27M825,1186l-207,0l-158,188l-147,-188l-207,0l235,325l248,0z"
   id="glyph750" />
<glyph
   unicode="Ŧ"
   horiz-adv-x="1200"
   d="M1171,1171l-409,0l0,-366l237,0l0,-266l-237,0l0,-539l-324,0l0,539l-237,0l0,266l237,0l0,366l-407,0l0,263l1140,0z"
   id="glyph752" />
<glyph
   unicode="ŧ"
   horiz-adv-x="797"
   d="M752,12C705,-13 635,-25 541,-25C318,-25 207,91 207,322l0,120l-146,0l0,205l146,0l0,144l-166,0l0,233l166,0l0,221l315,90l0,-311l230,0l0,-233l-230,0l0,-144l219,0l0,-205l-219,0l0,-65C522,270 564,217 649,217C682,217 717,227 752,246z"
   id="glyph754" />
<glyph
   unicode="Ũ"
   horiz-adv-x="1481"
   d="M1333,621C1333,190 1132,-25 731,-25C342,-25 147,185 147,606l0,828l324,0l0,-832C471,370 562,254 743,254C921,254 1010,366 1010,590l0,844l323,0M1100,1829C1100,1736 1082,1664 1045,1613C1008,1562 957,1536 893,1536C836,1536 780,1550 725,1579C666,1610 625,1626 602,1626C549,1626 522,1590 522,1518l-141,0C381,1611 399,1683 436,1734C473,1785 524,1811 590,1811C644,1811 700,1795 758,1762C811,1733 851,1718 878,1718C930,1718 956,1755 956,1829z"
   id="glyph756" />
<glyph
   unicode="ũ"
   horiz-adv-x="1239"
   d="M1106,0l-315,0l0,156l-5,0C708,35 604,-25 473,-25C236,-25 117,119 117,406l0,618l315,0l0,-590C432,289 489,217 604,217C661,217 706,237 740,277C774,316 791,370 791,438l0,586l315,0M979,1497C979,1404 961,1332 924,1281C887,1230 836,1204 772,1204C715,1204 659,1218 604,1247C545,1278 504,1294 481,1294C428,1294 401,1258 401,1186l-141,0C260,1279 278,1351 315,1402C352,1453 403,1479 469,1479C523,1479 579,1463 637,1430C690,1401 730,1386 757,1386C809,1386 835,1423 835,1497z"
   id="glyph758" />
<glyph
   unicode="Ū"
   horiz-adv-x="1481"
   d="M1333,621C1333,190 1132,-25 731,-25C342,-25 147,185 147,606l0,828l324,0l0,-832C471,370 562,254 743,254C921,254 1010,366 1010,590l0,844l323,0M1033,1567l-586,0l0,172l586,0z"
   id="glyph760" />
<glyph
   unicode="ū"
   horiz-adv-x="1239"
   d="M1106,0l-315,0l0,156l-5,0C708,35 604,-25 473,-25C236,-25 117,119 117,406l0,618l315,0l0,-590C432,289 489,217 604,217C661,217 706,237 740,277C774,316 791,370 791,438l0,586l315,0M912,1186l-586,0l0,172l586,0z"
   id="glyph762" />
<glyph
   unicode="Ŭ"
   horiz-adv-x="1481"
   d="M1333,621C1333,190 1132,-25 731,-25C342,-25 147,185 147,606l0,828l324,0l0,-832C471,370 562,254 743,254C921,254 1010,366 1010,590l0,844l323,0M1077,1874C1069,1780 1035,1705 975,1650C914,1595 835,1567 737,1567C640,1567 560,1596 499,1653C438,1710 406,1783 403,1874l179,0C593,1784 646,1739 741,1739C832,1739 884,1784 897,1874z"
   id="glyph764" />
<glyph
   unicode="ŭ"
   horiz-adv-x="1239"
   d="M1106,0l-315,0l0,156l-5,0C708,35 604,-25 473,-25C236,-25 117,119 117,406l0,618l315,0l0,-590C432,289 489,217 604,217C661,217 706,237 740,277C774,316 791,370 791,438l0,586l315,0M956,1493C948,1399 914,1324 854,1269C793,1214 714,1186 616,1186C519,1186 439,1215 378,1272C317,1329 285,1402 282,1493l179,0C472,1403 525,1358 620,1358C711,1358 763,1403 776,1493z"
   id="glyph766" />
<glyph
   unicode="Ų"
   horiz-adv-x="1481"
   d="M1333,621C1333,218 1158,3 808,-22C777,-75 762,-121 762,-160C762,-195 781,-213 820,-213C852,-213 891,-204 938,-187l0,-136C887,-340 835,-349 784,-349C727,-349 682,-333 647,-300C612,-268 594,-226 594,-174C594,-125 613,-74 651,-21C315,8 147,217 147,606l0,828l324,0l0,-832C471,370 562,254 743,254C921,254 1010,366 1010,590l0,844l323,0z"
   id="glyph768" />
<glyph
   unicode="ų"
   horiz-adv-x="1239"
   d="M1106,0l-155,0C912,-60 892,-113 892,-160C892,-195 911,-213 950,-213C982,-213 1021,-204 1068,-187l0,-136C1017,-340 965,-349 914,-349C857,-349 812,-333 777,-300C742,-268 724,-226 724,-174C724,-118 748,-60 797,0l-6,0l0,156l-5,0C708,35 604,-25 473,-25C236,-25 117,119 117,406l0,618l315,0l0,-590C432,289 489,217 604,217C661,217 706,237 740,277C774,316 791,370 791,438l0,586l315,0z"
   id="glyph770" />
<glyph
   unicode="Ŵ"
   horiz-adv-x="2058"
   d="M2040,1434l-379,-1434l-358,0l-238,920C1052,968 1045,1022 1042,1081l-4,0C1032,1016 1023,962 1012,920l-244,-920l-373,0l-377,1434l353,0l202,-955C582,438 588,384 592,315l6,0C601,366 610,422 627,483l260,951l346,0l235,-963C1477,436 1484,384 1491,317l4,0C1498,370 1505,423 1516,477l198,957M1389,1567l-207,0l-158,188l-147,-188l-207,0l235,325l248,0z"
   id="glyph772" />
<glyph
   unicode="ŵ"
   horiz-adv-x="1633"
   d="M1616,1024l-295,-1024l-332,0l-151,600C828,640 822,684 821,731l-6,0C810,679 804,637 795,604l-162,-604l-328,0l-289,1024l322,0l141,-668C486,325 491,287 494,242l6,0C503,289 509,328 518,360l176,664l301,0l158,-668C1157,339 1162,301 1167,240l7,0C1177,279 1183,317 1190,356l133,668M1176,1186l-207,0l-158,188l-147,-188l-207,0l235,325l248,0z"
   id="glyph774" />
<glyph
   unicode="Ŷ"
   horiz-adv-x="1243"
   d="M1245,1434l-467,-924l0,-510l-323,0l0,504l-455,930l369,0l231,-535C604,889 615,850 633,782l4,0C646,830 656,868 668,895l235,539M981,1567l-207,0l-158,188l-147,-188l-207,0l235,325l248,0z"
   id="glyph776" />
<glyph
   unicode="ŷ"
   horiz-adv-x="1102"
   d="M1108,1024l-416,-1106C592,-348 441,-481 240,-481C163,-481 100,-472 51,-455l0,252C93,-228 139,-240 188,-240C269,-240 326,-202 358,-125l54,127l-416,1022l350,0l191,-623C549,362 558,317 565,264l4,0C575,303 586,348 602,399l193,625M910,1186l-207,0l-158,188l-147,-188l-207,0l235,325l248,0z"
   id="glyph778" />
<glyph
   unicode="ſ"
   horiz-adv-x="613"
   d="M717,1274C676,1290 637,1298 600,1298C499,1298 449,1243 449,1133l0,-1133l-316,0l0,1151C133,1268 171,1362 247,1433C323,1504 426,1540 557,1540C621,1540 674,1533 717,1520z"
   id="glyph780" />
<glyph
   unicode="Ǻ"
   horiz-adv-x="1440"
   d="M1425,0l-352,0l-102,319l-510,0l-101,-319l-350,0l512,1407C487,1443 469,1489 469,1544C469,1615 494,1671 543,1713C592,1755 652,1776 723,1776C799,1776 860,1755 907,1713C954,1670 977,1615 977,1548C977,1495 959,1449 924,1411M719,1645C688,1645 663,1636 644,1617C625,1598 616,1574 616,1546C616,1481 650,1448 719,1448C751,1448 777,1458 796,1477C815,1496 825,1519 825,1546C825,1575 815,1598 796,1617C776,1636 750,1645 719,1645M893,584l-152,465C732,1076 725,1116 719,1169l-8,0C706,1124 699,1085 688,1053l-153,-469M1037,2181l-313,-323l-228,0l260,323z"
   id="glyph782" />
<glyph
   unicode="ǻ"
   horiz-adv-x="1102"
   d="M985,0l-299,0l0,147l-4,0C613,32 512,-25 377,-25C278,-25 200,3 143,60C86,116 57,191 57,285C57,484 175,598 410,629l278,37C688,778 627,834 506,834C384,834 268,798 158,725l0,238C202,986 262,1006 339,1023C415,1040 484,1049 547,1049C839,1049 985,903 985,612M688,416l0,69l-186,-24C399,448 348,401 348,322C348,286 361,257 386,234C411,211 444,199 487,199C546,199 595,220 632,261C669,302 688,353 688,416M573,1135C505,1135 449,1155 405,1195C360,1234 338,1286 338,1350C338,1417 361,1471 408,1511C454,1551 511,1571 578,1571C649,1571 707,1551 751,1512C795,1472 817,1420 817,1356C817,1291 793,1238 746,1197C698,1156 640,1135 573,1135M573,1448C509,1448 477,1417 477,1354C477,1291 509,1260 573,1260C603,1260 628,1269 647,1288C666,1306 676,1328 676,1354C676,1381 667,1404 648,1422C629,1439 604,1448 573,1448M891,1982l-313,-323l-228,0l260,323z"
   id="glyph784" />
<glyph
   unicode="Ǽ"
   horiz-adv-x="1915"
   d="M1849,0l-858,0l0,319l-471,0l-147,-319l-375,0l725,1434l1094,0l0,-263l-504,0l0,-319l469,0l0,-262l-469,0l0,-328l536,0M991,567l0,604l-78,0l-282,-604M1526,1890l-313,-323l-228,0l260,323z"
   id="glyph786" />
<glyph
   unicode="ǽ"
   horiz-adv-x="1696"
   d="M1640,422l-667,0C986,273 1080,199 1255,199C1362,199 1461,226 1552,279l0,-226C1448,1 1322,-25 1174,-25C995,-25 862,35 776,154l-4,0C678,35 557,-25 410,-25C299,-25 213,3 151,58C88,113 57,189 57,287C57,384 89,462 154,521C218,580 310,614 430,623l256,20C686,770 625,834 502,834C386,834 271,798 158,727l0,236C283,1020 406,1049 528,1049C684,1049 792,1004 852,915l4,0C944,1004 1053,1049 1182,1049C1325,1049 1437,1005 1518,916C1599,827 1640,706 1640,551M1348,616C1348,763 1289,836 1171,836C1121,836 1077,815 1040,774C1002,733 980,680 973,616M686,414l0,45l-156,-13C407,436 346,392 346,315C346,282 359,254 385,232C411,210 445,199 487,199C544,199 592,219 630,259C667,298 686,350 686,414M1180,1509l-313,-323l-228,0l260,323z"
   id="glyph788" />
<glyph
   unicode="Ǿ"
   horiz-adv-x="1553"
   d="M348,109l-143,-170l-125,104l149,176C126,347 74,507 74,698C74,925 140,1108 271,1248C402,1388 576,1458 793,1458C949,1458 1083,1418 1194,1339l129,150l125,-103l-135,-157C1424,1098 1479,931 1479,727C1479,502 1414,320 1283,182C1152,44 981,-25 770,-25C610,-25 469,20 348,109M1016,1130C951,1181 874,1206 784,1206C663,1206 568,1161 497,1070C426,979 391,858 391,709C391,612 407,528 438,457M1110,995l-578,-676C599,258 681,227 776,227C893,227 986,270 1057,356C1128,441 1163,558 1163,707C1163,816 1145,912 1110,995M1149,1890l-313,-323l-228,0l260,323z"
   id="glyph790" />
<glyph
   unicode="ǿ"
   horiz-adv-x="1252"
   d="M1206,1010l-139,-146C1142,769 1180,656 1180,526C1180,353 1131,219 1032,122C933,25 796,-23 621,-23C489,-23 380,6 293,63l-135,-141l-119,107l137,143C107,266 72,379 72,510C72,679 123,811 225,907C326,1003 464,1051 637,1051C756,1051 860,1024 948,969l139,147M772,791C735,818 688,831 631,831C459,831 373,725 373,514C373,465 379,425 391,393M862,651l-393,-409C510,212 563,197 629,197C797,197 881,305 881,520C881,569 875,613 862,651M958,1509l-313,-323l-228,0l260,323z"
   id="glyph792" />
<glyph
   unicode="·"
   horiz-adv-x="556"
   d="M275,487C223,487 180,503 145,535C110,567 93,606 93,653C93,702 111,741 146,772C181,802 225,817 278,817C332,817 376,802 411,771C445,740 462,700 462,653C462,604 445,565 411,534C376,503 331,487 275,487z"
   id="glyph794" />
<glyph
   unicode="Ẁ"
   horiz-adv-x="2058"
   d="M2040,1434l-379,-1434l-358,0l-238,920C1052,968 1045,1022 1042,1081l-4,0C1032,1016 1023,962 1012,920l-244,-920l-373,0l-377,1434l353,0l202,-955C582,438 588,384 592,315l6,0C601,366 610,422 627,483l260,951l346,0l235,-963C1477,436 1484,384 1491,317l4,0C1498,370 1505,423 1516,477l198,957M1243,1567l-227,0l-314,323l281,0z"
   id="glyph796" />
<glyph
   unicode="ẁ"
   horiz-adv-x="1633"
   d="M1616,1024l-295,-1024l-332,0l-151,600C828,640 822,684 821,731l-6,0C810,679 804,637 795,604l-162,-604l-328,0l-289,1024l322,0l141,-668C486,325 491,287 494,242l6,0C503,289 509,328 518,360l176,664l301,0l158,-668C1157,339 1162,301 1167,240l7,0C1177,279 1183,317 1190,356l133,668M1071,1186l-227,0l-314,323l281,0z"
   id="glyph798" />
<glyph
   unicode="Ẃ"
   horiz-adv-x="2058"
   d="M2040,1434l-379,-1434l-358,0l-238,920C1052,968 1045,1022 1042,1081l-4,0C1032,1016 1023,962 1012,920l-244,-920l-373,0l-377,1434l353,0l202,-955C582,438 588,384 592,315l6,0C601,366 610,422 627,483l260,951l346,0l235,-963C1477,436 1484,384 1491,317l4,0C1498,370 1505,423 1516,477l198,957M1372,1890l-313,-323l-228,0l260,323z"
   id="glyph800" />
<glyph
   unicode="ẃ"
   horiz-adv-x="1633"
   d="M1616,1024l-295,-1024l-332,0l-151,600C828,640 822,684 821,731l-6,0C810,679 804,637 795,604l-162,-604l-328,0l-289,1024l322,0l141,-668C486,325 491,287 494,242l6,0C503,289 509,328 518,360l176,664l301,0l158,-668C1157,339 1162,301 1167,240l7,0C1177,279 1183,317 1190,356l133,668M1147,1509l-313,-323l-228,0l260,323z"
   id="glyph802" />
<glyph
   unicode="Ẅ"
   horiz-adv-x="2058"
   d="M2040,1434l-379,-1434l-358,0l-238,920C1052,968 1045,1022 1042,1081l-4,0C1032,1016 1023,962 1012,920l-244,-920l-373,0l-377,1434l353,0l202,-955C582,438 588,384 592,315l6,0C601,366 610,422 627,483l260,951l346,0l235,-963C1477,436 1484,384 1491,317l4,0C1498,370 1505,423 1516,477l198,957M1279,1567C1234,1567 1198,1580 1169,1606C1140,1632 1126,1665 1126,1704C1126,1745 1140,1778 1169,1803C1198,1828 1234,1841 1279,1841C1324,1841 1361,1828 1390,1803C1419,1777 1433,1744 1433,1704C1433,1664 1419,1631 1390,1606C1361,1580 1324,1567 1279,1567M821,1567C776,1567 739,1580 710,1607C681,1633 667,1665 667,1704C667,1744 682,1777 711,1803C740,1828 777,1841 821,1841C866,1841 903,1828 932,1803C960,1777 974,1744 974,1704C974,1663 960,1630 932,1605C903,1580 866,1567 821,1567z"
   id="glyph804" />
<glyph
   unicode="ẅ"
   horiz-adv-x="1633"
   d="M1616,1024l-295,-1024l-332,0l-151,600C828,640 822,684 821,731l-6,0C810,679 804,637 795,604l-162,-604l-328,0l-289,1024l322,0l141,-668C486,325 491,287 494,242l6,0C503,289 509,328 518,360l176,664l301,0l158,-668C1157,339 1162,301 1167,240l7,0C1177,279 1183,317 1190,356l133,668M1078,1186C1033,1186 997,1199 968,1225C939,1251 925,1284 925,1323C925,1364 939,1397 968,1422C997,1447 1033,1460 1078,1460C1123,1460 1160,1447 1189,1422C1218,1396 1232,1363 1232,1323C1232,1283 1218,1250 1189,1225C1160,1199 1123,1186 1078,1186M620,1186C575,1186 538,1199 509,1226C480,1252 466,1284 466,1323C466,1363 481,1396 510,1422C539,1447 576,1460 620,1460C665,1460 702,1447 731,1422C759,1396 773,1363 773,1323C773,1282 759,1249 731,1224C702,1199 665,1186 620,1186z"
   id="glyph806" />
<glyph
   unicode="Ỳ"
   horiz-adv-x="1243"
   d="M1245,1434l-467,-924l0,-510l-323,0l0,504l-455,930l369,0l231,-535C604,889 615,850 633,782l4,0C646,830 656,868 668,895l235,539M867,1567l-227,0l-314,323l281,0z"
   id="glyph808" />
<glyph
   unicode="ỳ"
   horiz-adv-x="1102"
   d="M1108,1024l-416,-1106C592,-348 441,-481 240,-481C163,-481 100,-472 51,-455l0,252C93,-228 139,-240 188,-240C269,-240 326,-202 358,-125l54,127l-416,1022l350,0l191,-623C549,362 558,317 565,264l4,0C575,303 586,348 602,399l193,625M817,1186l-227,0l-314,323l281,0z"
   id="glyph810" />
<glyph
   unicode="‛"
   horiz-adv-x="594"
   d="M500,1024l-195,0l-192,444l272,0z"
   id="glyph812" />
<glyph
   unicode="‾"
   horiz-adv-x="850"
   d="M850,1397l-850,0l0,119l850,0z"
   id="glyph814" />
<glyph
   unicode="₤"
   horiz-adv-x="1178"
   d="M1114,0l-971,0l0,227C212,245 261,273 291,312C321,351 336,405 336,475l0,41l-172,0l0,176l172,0l0,105l-172,0l0,176l172,0l0,43C336,1148 377,1255 458,1336C539,1417 649,1458 788,1458C873,1458 951,1442 1022,1409l0,-258C957,1195 887,1217 813,1217C690,1217 629,1140 629,987l0,-14l268,0l0,-176l-268,0l0,-105l268,0l0,-176l-268,0l0,-10C629,387 578,299 477,242l637,0z"
   id="glyph816" />
<glyph
   unicode="℮"
   horiz-adv-x="1229"
   d="M1145,530l-828,0l0,-370C398,79 496,39 612,39C785,39 917,121 1008,285l71,-43C1000,127 923,53 849,18C775,-17 697,-35 614,-35C454,-35 326,19 229,127C132,234 84,369 84,530C84,697 133,834 232,939C330,1044 456,1096 610,1096C754,1096 877,1049 978,954C1079,859 1134,717 1145,530M911,604l0,297C825,983 724,1024 608,1024C493,1024 396,983 315,901l0,-297z"
   id="glyph818" />
<glyph
   unicode="⅛"
   horiz-adv-x="1977"
   d="M676,584l-563,0l0,172l176,0l0,477l-191,-41l0,180l406,82l0,-698l172,0M1505,1434l-891,-1434l-244,0l891,1434M1375,444C1285,487 1240,551 1240,637C1240,705 1268,761 1323,805C1378,849 1448,871 1534,871C1622,871 1692,850 1745,809C1798,768 1824,714 1824,649C1824,559 1775,491 1676,446C1789,406 1845,334 1845,231C1845,154 1816,93 1757,48C1698,3 1618,-19 1515,-19C1426,-19 1353,3 1298,47C1242,90 1214,148 1214,221C1214,320 1268,395 1375,444M1625,634C1625,690 1595,718 1534,718C1507,718 1485,710 1467,695C1448,679 1439,658 1439,633C1439,590 1470,556 1532,531C1594,557 1625,591 1625,634M1524,359C1451,330 1414,287 1414,230C1414,203 1425,180 1448,162C1470,144 1497,135 1530,135C1607,135 1646,167 1646,231C1646,288 1605,331 1524,359z"
   id="glyph820" />
<glyph
   unicode="⅜"
   horiz-adv-x="1977"
   d="M131,616l0,181C202,752 276,729 352,729C452,729 502,763 502,831C502,900 445,934 330,934l-117,0l0,166l113,0C425,1100 475,1132 475,1196C475,1256 435,1286 356,1286C285,1286 219,1264 158,1221l0,176C224,1435 304,1454 397,1454C486,1454 557,1434 609,1394C660,1353 686,1300 686,1233C686,1135 638,1070 543,1038l0,-4C658,1007 715,941 715,836C715,754 682,688 617,638C552,588 466,563 360,563C271,563 195,581 131,616M1506,1434l-891,-1434l-244,0l891,1434M1375,444C1285,487 1240,551 1240,637C1240,705 1268,761 1323,805C1378,849 1448,871 1534,871C1622,871 1692,850 1745,809C1798,768 1824,714 1824,649C1824,559 1775,491 1676,446C1789,406 1845,334 1845,231C1845,154 1816,93 1757,48C1698,3 1618,-19 1515,-19C1426,-19 1353,3 1298,47C1242,90 1214,148 1214,221C1214,320 1268,395 1375,444M1625,634C1625,690 1595,718 1534,718C1507,718 1485,710 1467,695C1448,679 1439,658 1439,633C1439,590 1470,556 1532,531C1594,557 1625,591 1625,634M1524,359C1451,330 1414,287 1414,230C1414,203 1425,180 1448,162C1470,144 1497,135 1530,135C1607,135 1646,167 1646,231C1646,288 1605,331 1524,359z"
   id="glyph822" />
<glyph
   unicode="⅝"
   horiz-adv-x="1977"
   d="M134,602l0,183C202,744 268,724 332,724C431,724 481,764 481,844C481,921 424,959 311,959C272,959 221,955 158,947l0,489l497,0l0,-172l-314,0l0,-145C367,1121 387,1122 402,1122C493,1122 565,1098 617,1051C669,1004 695,940 695,861C695,774 664,702 603,647C541,591 458,563 353,563C268,563 195,576 134,602M1506,1434l-891,-1434l-244,0l891,1434M1375,444C1285,487 1240,551 1240,637C1240,705 1268,761 1323,805C1378,849 1448,871 1534,871C1622,871 1692,850 1745,809C1798,768 1824,714 1824,649C1824,559 1775,491 1676,446C1789,406 1845,334 1845,231C1845,154 1816,93 1757,48C1698,3 1618,-19 1515,-19C1426,-19 1353,3 1298,47C1242,90 1214,148 1214,221C1214,320 1268,395 1375,444M1625,634C1625,690 1595,718 1534,718C1507,718 1485,710 1467,695C1448,679 1439,658 1439,633C1439,590 1470,556 1532,531C1594,557 1625,591 1625,634M1524,359C1451,330 1414,287 1414,230C1414,203 1425,180 1448,162C1470,144 1497,135 1530,135C1607,135 1646,167 1646,231C1646,288 1605,331 1524,359z"
   id="glyph824" />
<glyph
   unicode="⅞"
   horiz-adv-x="1895"
   d="M708,1336l-307,-752l-222,0l306,678l-396,0l0,172l619,0M1424,1434l-891,-1434l-244,0l891,1434M1293,444C1203,487 1158,551 1158,637C1158,705 1186,761 1241,805C1296,849 1366,871 1452,871C1540,871 1610,850 1663,809C1716,768 1742,714 1742,649C1742,559 1693,491 1594,446C1707,406 1763,334 1763,231C1763,154 1734,93 1675,48C1616,3 1536,-19 1433,-19C1344,-19 1271,3 1216,47C1160,90 1132,148 1132,221C1132,320 1186,395 1293,444M1543,634C1543,690 1513,718 1452,718C1425,718 1403,710 1385,695C1366,679 1357,658 1357,633C1357,590 1388,556 1450,531C1512,557 1543,591 1543,634M1442,359C1369,330 1332,287 1332,230C1332,203 1343,180 1366,162C1388,144 1415,135 1448,135C1525,135 1564,167 1564,231C1564,288 1523,331 1442,359z"
   id="glyph826" />
<glyph
   unicode=""
   horiz-adv-x="1024"
   d="M692,1116l-168,-352l-194,0l90,352z"
   id="glyph828" />
<glyph
   unicode=""
   horiz-adv-x="1303"
   d="M850,-111l-168,-352l-195,0l91,352z"
   id="glyph830" />
<glyph
   unicode=";"
   horiz-adv-x="555"
   d="M281,707C228,707 185,723 150,755C115,787 98,826 98,872C98,921 116,960 151,991C186,1021 230,1036 283,1036C337,1036 381,1021 416,990C450,959 467,919 467,872C467,823 450,784 416,753C382,722 337,707 281,707M432,252l-147,-506l-246,0l102,506z"
   id="glyph832" />
<glyph
   unicode="΄"
   horiz-adv-x="649"
   d="M565,1508l-207,-340l-169,0l95,340z"
   id="glyph834" />
<glyph
   unicode="΅"
   horiz-adv-x="836"
   d="M646,1581l-202,-372l-153,0l84,372M723,1184C682,1184 648,1196 621,1221C594,1246 580,1276 580,1313C580,1351 593,1382 620,1406C647,1429 681,1441 723,1441C765,1441 800,1429 827,1405C854,1381 867,1350 867,1313C867,1276 854,1245 827,1221C800,1196 766,1184 723,1184M113,1184C71,1184 37,1197 10,1222C-17,1247 -31,1277 -31,1313C-31,1351 -17,1382 10,1406C37,1429 72,1441 113,1441C155,1441 190,1429 217,1405C244,1381 257,1350 257,1313C257,1276 244,1245 217,1221C190,1196 156,1184 113,1184z"
   id="glyph836" />
<glyph
   unicode="Ά"
   horiz-adv-x="1496"
   d="M1482,0l-352,0l-102,319l-510,0l-101,-319l-350,0l522,1434l383,0M954,567l-154,482C789,1085 781,1128 776,1178l-8,0C765,1136 756,1094 743,1053l-156,-486M386,1434l-207,-340l-169,0l95,340z"
   id="glyph838" />
<glyph
   unicode="Έ"
   horiz-adv-x="1341"
   d="M1275,0l-860,0l0,1434l827,0l0,-263l-504,0l0,-319l469,0l0,-262l-469,0l0,-328l537,0M327,1434l-207,-340l-169,0l95,340z"
   id="glyph840" />
<glyph
   unicode="Ή"
   horiz-adv-x="1821"
   d="M1655,0l-324,0l0,584l-594,0l0,-584l-323,0l0,1434l323,0l0,-572l594,0l0,572l324,0M326,1434l-207,-340l-169,0l95,340z"
   id="glyph842" />
<glyph
   unicode="Ί"
   horiz-adv-x="903"
   d="M739,0l-323,0l0,1434l323,0M327,1434l-207,-340l-169,0l95,340z"
   id="glyph844" />
<glyph
   unicode="Ό"
   horiz-adv-x="1732"
   d="M948,-25C743,-25 575,42 446,176C317,309 252,483 252,698C252,925 318,1108 449,1248C580,1388 754,1458 971,1458C1176,1458 1341,1391 1468,1257C1594,1123 1657,946 1657,727C1657,502 1592,320 1461,182C1330,44 1159,-25 948,-25M962,1180C849,1180 759,1138 692,1053C625,968 592,855 592,715C592,573 625,461 692,378C759,295 846,254 954,254C1065,254 1154,294 1219,375C1284,455 1317,566 1317,709C1317,858 1285,973 1222,1056C1159,1139 1072,1180 962,1180M338,1434l-207,-340l-169,0l95,340z"
   id="glyph846" />
<glyph
   unicode="Ύ"
   horiz-adv-x="1597"
   d="M1597,1434l-467,-924l0,-510l-323,0l0,504l-455,930l369,0l231,-535C956,889 967,850 985,782l4,0C998,830 1008,868 1020,895l235,539M304,1434l-207,-340l-169,0l95,340z"
   id="glyph848" />
<glyph
   unicode="Ώ"
   horiz-adv-x="1769"
   d="M1338,262l346,0l0,-262l-600,0l0,260C1259,411 1346,586 1346,786C1346,905 1312,1001 1245,1073C1177,1144 1092,1180 989,1180C883,1180 796,1144 728,1073C659,1001 625,901 625,774C625,681 644,595 681,514C718,433 785,349 883,260l0,-260l-600,0l0,262l340,0C398,393 285,582 285,829C285,1019 350,1171 480,1286C610,1401 778,1458 983,1458C1194,1458 1364,1400 1493,1285C1622,1170 1686,1019 1686,834C1686,582 1570,391 1338,262M327,1434l-207,-340l-169,0l95,340z"
   id="glyph850" />
<glyph
   unicode="ΐ"
   horiz-adv-x="672"
   d="M653,14C606,-8 544,-19 468,-19C259,-19 154,93 154,316l0,708l316,0l0,-661C470,276 499,233 558,233C588,233 620,241 653,256M544,1581l-202,-372l-153,0l84,372M621,1184C580,1184 546,1196 519,1221C492,1246 478,1276 478,1313C478,1351 491,1382 518,1406C545,1429 579,1441 621,1441C663,1441 698,1429 725,1405C752,1381 765,1350 765,1313C765,1276 752,1245 725,1221C698,1196 664,1184 621,1184M11,1184C-31,1184 -65,1197 -92,1222C-119,1247 -133,1277 -133,1313C-133,1351 -119,1382 -92,1406C-65,1429 -30,1441 11,1441C53,1441 88,1429 115,1405C142,1381 155,1350 155,1313C155,1276 142,1245 115,1221C88,1196 54,1184 11,1184z"
   id="glyph852" />
<glyph
   unicode="Α"
   horiz-adv-x="1440"
   d="M1425,0l-352,0l-102,319l-510,0l-101,-319l-350,0l522,1434l383,0M897,567l-154,482C732,1085 724,1128 719,1178l-8,0C708,1136 699,1094 686,1053l-156,-486z"
   id="glyph854" />
<glyph
   unicode="Β"
   horiz-adv-x="1313"
   d="M164,0l0,1434l522,0C846,1434 969,1405 1055,1346C1141,1287 1184,1205 1184,1098C1184,1021 1158,953 1106,895C1053,837 986,797 905,774l0,-4C1007,757 1089,720 1150,657C1211,594 1241,518 1241,428C1241,297 1194,193 1100,116C1006,39 878,0 715,0M487,1196l0,-340l142,0C696,856 748,872 787,905C825,937 844,981 844,1038C844,1143 765,1196 608,1196M487,616l0,-378l175,0C737,238 795,255 838,290C880,325 901,372 901,432C901,489 880,534 839,567C797,600 739,616 664,616z"
   id="glyph856" />
<glyph
   unicode="Ε"
   horiz-adv-x="1090"
   d="M1024,0l-860,0l0,1434l827,0l0,-263l-504,0l0,-319l469,0l0,-262l-469,0l0,-328l537,0z"
   id="glyph858" />
<glyph
   unicode="Ζ"
   horiz-adv-x="1243"
   d="M1196,0l-1155,0l0,186l735,985l-682,0l0,263l1100,0l0,-181l-719,-991l721,0z"
   id="glyph860" />
<glyph
   unicode="Η"
   horiz-adv-x="1569"
   d="M1405,0l-324,0l0,584l-594,0l0,-584l-323,0l0,1434l323,0l0,-572l594,0l0,572l324,0z"
   id="glyph862" />
<glyph
   unicode="Ι"
   horiz-adv-x="649"
   d="M487,0l-323,0l0,1434l323,0z"
   id="glyph864" />
<glyph
   unicode="Κ"
   horiz-adv-x="1329"
   d="M1356,0l-408,0l-418,623C522,635 509,661 492,702l-5,0l0,-702l-323,0l0,1434l323,0l0,-678l5,0C500,775 513,801 532,836l396,598l385,0l-500,-684z"
   id="glyph866" />
<glyph
   unicode="Λ"
   horiz-adv-x="1419"
   d="M1401,0l-352,0l-313,1039C724,1079 715,1124 709,1174l-7,0C697,1135 688,1092 673,1043l-315,-1043l-347,0l507,1434l393,0z"
   id="glyph868" />
<glyph
   unicode="Μ"
   horiz-adv-x="1960"
   d="M1798,0l-319,0l0,858C1479,951 1483,1053 1491,1165l-8,0C1466,1077 1451,1014 1438,975l-336,-975l-264,0l-342,965C487,991 472,1058 451,1165l-9,0C451,1024 455,900 455,793l0,-793l-291,0l0,1434l473,0l293,-850C953,516 970,448 981,379l6,0C1005,458 1024,527 1044,586l293,848l461,0z"
   id="glyph870" />
<glyph
   unicode="Ν"
   horiz-adv-x="1618"
   d="M1454,0l-326,0l-591,901C502,954 478,993 465,1020l-4,0C466,969 469,892 469,788l0,-788l-305,0l0,1434l348,0l569,-873C1107,522 1131,483 1153,444l4,0C1152,477 1149,543 1149,641l0,793l305,0z"
   id="glyph872" />
<glyph
   unicode="Ξ"
   horiz-adv-x="1134"
   d="M1050,1166l-967,0l0,268l967,0M905,589l-677,0l0,264l677,0M1074,0l-1014,0l0,270l1014,0z"
   id="glyph874" />
<glyph
   unicode="Ο"
   horiz-adv-x="1553"
   d="M770,-25C565,-25 397,42 268,176C139,309 74,483 74,698C74,925 140,1108 271,1248C402,1388 576,1458 793,1458C998,1458 1163,1391 1290,1257C1416,1123 1479,946 1479,727C1479,502 1414,320 1283,182C1152,44 981,-25 770,-25M784,1180C671,1180 581,1138 514,1053C447,968 414,855 414,715C414,573 447,461 514,378C581,295 668,254 776,254C887,254 976,294 1041,375C1106,455 1139,566 1139,709C1139,858 1107,973 1044,1056C981,1139 894,1180 784,1180z"
   id="glyph876" />
<glyph
   unicode="Π"
   horiz-adv-x="1567"
   d="M1404,0l-323,0l0,1152l-594,0l0,-1152l-323,0l0,1434l1240,0z"
   id="glyph878" />
<glyph
   unicode="Ρ"
   horiz-adv-x="1258"
   d="M487,494l0,-494l-323,0l0,1434l506,0C1031,1434 1212,1282 1212,977C1212,833 1160,717 1057,628C953,539 814,494 641,494M487,1186l0,-447l127,0C786,739 872,814 872,965C872,1112 786,1186 614,1186z"
   id="glyph880" />
<glyph
   unicode="Σ"
   horiz-adv-x="1165"
   d="M1125,0l-1083,0l0,172l462,554l-437,523l0,185l996,0l0,-265l-540,0l353,-429l-384,-480l633,0z"
   id="glyph882" />
<glyph
   unicode="Τ"
   horiz-adv-x="1200"
   d="M1171,1171l-409,0l0,-1171l-324,0l0,1171l-407,0l0,263l1140,0z"
   id="glyph884" />
<glyph
   unicode="Υ"
   horiz-adv-x="1243"
   d="M1245,1434l-467,-924l0,-510l-323,0l0,504l-455,930l369,0l231,-535C604,889 615,850 633,782l4,0C646,830 656,868 668,895l235,539z"
   id="glyph886" />
<glyph
   unicode="Χ"
   horiz-adv-x="1342"
   d="M1335,0l-383,0l-247,467C696,484 686,516 676,563l-4,0C667,541 656,508 639,463l-248,-463l-385,0l457,717l-418,717l393,0l205,-430C659,970 673,930 686,883l4,0C698,911 713,953 735,1008l228,426l360,0l-430,-711z"
   id="glyph888" />
<glyph
   unicode="Ψ"
   horiz-adv-x="1692"
   d="M1558,895C1558,735 1507,605 1406,506C1304,407 1172,356 1009,354l-23,0l0,-354l-280,0l0,354l-24,0C526,354 396,403 291,502C186,600 133,731 133,894l0,540l285,0l0,-517C418,722 506,624 681,623l25,0l0,811l280,0l0,-811l24,0C1185,623 1273,721 1273,917l0,517l285,0z"
   id="glyph890" />
<glyph
   unicode="Ω"
   horiz-adv-x="1568"
   d="M1137,262l346,0l0,-262l-600,0l0,260C1058,411 1145,586 1145,786C1145,905 1111,1001 1044,1073C976,1144 891,1180 788,1180C682,1180 595,1144 527,1073C458,1001 424,901 424,774C424,681 443,595 480,514C517,433 584,349 682,260l0,-260l-600,0l0,262l340,0C197,393 84,582 84,829C84,1019 149,1171 279,1286C409,1401 577,1458 782,1458C993,1458 1163,1400 1292,1285C1421,1170 1485,1019 1485,834C1485,582 1369,391 1137,262z"
   id="glyph892" />
<glyph
   unicode="Ϊ"
   horiz-adv-x="649"
   d="M487,0l-323,0l0,1434l323,0M558,1534C513,1534 477,1547 448,1573C419,1599 405,1632 405,1671C405,1712 419,1745 448,1770C477,1795 513,1808 558,1808C603,1808 640,1795 669,1770C698,1744 712,1711 712,1671C712,1631 698,1598 669,1573C640,1547 603,1534 558,1534M100,1534C55,1534 18,1547 -11,1574C-40,1600 -54,1632 -54,1671C-54,1711 -39,1744 -10,1770C19,1795 56,1808 100,1808C145,1808 182,1795 211,1770C239,1744 253,1711 253,1671C253,1630 239,1597 211,1572C182,1547 145,1534 100,1534z"
   id="glyph894" />
<glyph
   unicode="Ϋ"
   horiz-adv-x="1243"
   d="M1245,1434l-467,-924l0,-510l-323,0l0,504l-455,930l369,0l231,-535C604,889 615,850 633,782l4,0C646,830 656,868 668,895l235,539M847,1533C802,1533 766,1546 737,1572C708,1598 694,1631 694,1670C694,1711 708,1744 737,1769C766,1794 802,1807 847,1807C892,1807 929,1794 958,1769C987,1743 1001,1710 1001,1670C1001,1630 987,1597 958,1572C929,1546 892,1533 847,1533M389,1533C344,1533 307,1546 278,1573C249,1599 235,1631 235,1670C235,1710 250,1743 279,1769C308,1794 345,1807 389,1807C434,1807 471,1794 500,1769C528,1743 542,1710 542,1670C542,1629 528,1596 500,1571C471,1546 434,1533 389,1533z"
   id="glyph896" />
<glyph
   unicode="ά"
   horiz-adv-x="1304"
   d="M1266,1024l-214,-498l166,-526l-315,0l-47,214l-6,0C767,55 648,-25 492,-25C364,-25 262,21 187,114C111,206 73,329 73,483C73,651 117,787 205,892C293,997 409,1049 552,1049C717,1049 828,979 886,838l5,0l56,186M795,526C756,715 689,809 592,809C533,809 485,781 447,724C408,667 389,593 389,502C389,415 405,347 437,296C468,245 509,220 559,220C653,220 727,306 780,479M881,1508l-207,-340l-169,0l95,340z"
   id="glyph898" />
<glyph
   unicode="έ"
   horiz-adv-x="948"
   d="M883,254l0,-233C780,-10 658,-25 517,-25C375,-25 265,1 186,53C107,105 67,178 67,272C67,404 144,488 297,525l0,5C242,544 197,572 160,614C123,656 104,705 104,761C104,852 142,923 217,974C292,1024 398,1049 537,1049C648,1049 749,1035 839,1008l0,-232C742,816 656,836 580,836C477,836 426,803 426,736C426,658 494,619 631,619C676,619 715,621 748,626l0,-208C712,422 663,424 602,424C459,424 388,384 388,304C388,227 454,188 587,188C682,188 781,210 883,254M773,1508l-207,-340l-169,0l95,340z"
   id="glyph900" />
<glyph
   unicode="ή"
   horiz-adv-x="1252"
   d="M1122,-395l-319,0l0,936C803,700 747,779 636,779C580,779 535,759 501,718C466,677 449,625 449,561l0,-561l-316,0l0,676C133,851 119,967 92,1024l324,0C437,981 447,927 447,860l5,0C527,986 637,1049 782,1049C1009,1049 1122,908 1122,627M892,1508l-207,-340l-169,0l95,340z"
   id="glyph902" />
<glyph
   unicode="ί"
   horiz-adv-x="672"
   d="M653,14C606,-8 544,-19 468,-19C259,-19 154,93 154,316l0,708l316,0l0,-661C470,276 499,233 558,233C588,233 620,241 653,256M577,1508l-207,-340l-169,0l95,340z"
   id="glyph904" />
<glyph
   unicode="ΰ"
   horiz-adv-x="1261"
   d="M125,1024l316,0l0,-542C441,312 508,227 643,227C774,227 840,308 840,470C840,642 797,827 711,1024l329,0C1119,843 1158,660 1158,474C1158,317 1112,195 1019,107C926,19 797,-25 634,-25C471,-25 346,16 258,99C169,182 125,297 125,444M829,1581l-202,-372l-153,0l84,372M906,1184C865,1184 831,1196 804,1221C777,1246 763,1276 763,1313C763,1351 776,1382 803,1406C830,1429 864,1441 906,1441C948,1441 983,1429 1010,1405C1037,1381 1050,1350 1050,1313C1050,1276 1037,1245 1010,1221C983,1196 949,1184 906,1184M296,1184C254,1184 220,1197 193,1222C166,1247 152,1277 152,1313C152,1351 166,1382 193,1406C220,1429 255,1441 296,1441C338,1441 373,1429 400,1405C427,1381 440,1350 440,1313C440,1276 427,1245 400,1221C373,1196 339,1184 296,1184z"
   id="glyph906" />
<glyph
   unicode="β"
   horiz-adv-x="1275"
   d="M449,25l0,-419l-316,0l0,1442C133,1197 178,1315 268,1404C357,1492 479,1536 632,1536C782,1536 900,1501 986,1431C1071,1360 1114,1266 1114,1148C1114,1068 1091,998 1044,937C997,876 936,834 859,809l0,-4C966,784 1051,738 1112,668C1173,598 1204,513 1204,412C1204,281 1159,176 1069,96C979,16 860,-24 711,-24C621,-24 534,-8 449,25M563,670l0,221C632,895 687,918 730,959C773,1000 794,1053 794,1118C794,1173 779,1217 750,1248C721,1279 681,1294 631,1294C510,1294 449,1215 449,1058l0,-774C521,240 594,218 667,218C810,218 882,286 882,422C882,580 776,663 563,670z"
   id="glyph908" />
<glyph
   unicode="γ"
   horiz-adv-x="1161"
   d="M689,-74C689,-288 688,-424 685,-481l-322,0C376,-344 382,-177 382,20C360,142 306,308 219,517C132,726 49,895 -28,1024l366,0C479,747 572,498 617,277l4,0C737,485 795,686 795,879C795,922 791,970 783,1024l309,0C1097,980 1099,944 1099,917C1099,768 1072,621 1018,475C963,329 854,146 689,-74z"
   id="glyph910" />
<glyph
   unicode="ζ"
   horiz-adv-x="953"
   d="M860,-309l-339,0C598,-256 637,-198 637,-137C637,-103 619,-74 584,-50C549,-27 486,-3 396,22C176,75 66,219 66,456C66,697 240,973 588,1283l0,4l-384,0l0,229l690,0l0,-231C557,972 389,708 389,495C389,428 407,373 443,331C479,289 541,255 629,230C748,195 831,151 878,100C925,49 949,-14 949,-89C949,-171 919,-244 860,-309z"
   id="glyph912" />
<glyph
   unicode="η"
   horiz-adv-x="1252"
   d="M1122,-395l-319,0l0,936C803,700 747,779 636,779C580,779 535,759 501,718C466,677 449,625 449,561l0,-561l-316,0l0,676C133,851 119,967 92,1024l324,0C437,981 447,927 447,860l5,0C527,986 637,1049 782,1049C1009,1049 1122,908 1122,627z"
   id="glyph914" />
<glyph
   unicode="θ"
   horiz-adv-x="1253"
   d="M620,-25C449,-25 315,44 218,181C121,318 72,509 72,755C72,1001 122,1193 222,1331C321,1468 459,1537 636,1537C809,1537 943,1469 1038,1333C1133,1197 1180,1011 1180,776C1180,525 1131,328 1033,187C935,46 797,-25 620,-25M854,878C839,1155 764,1293 627,1293C491,1293 414,1155 397,878M854,650l-458,0C410,363 488,219 629,219C766,219 841,363 854,650z"
   id="glyph916" />
<glyph
   unicode="ι"
   horiz-adv-x="672"
   d="M653,14C606,-8 544,-19 468,-19C259,-19 154,93 154,316l0,708l316,0l0,-661C470,276 499,233 558,233C588,233 620,241 653,256z"
   id="glyph918" />
<glyph
   unicode="κ"
   horiz-adv-x="1168"
   d="M1168,0l-368,0l-261,421l-90,-93l0,-328l-316,0l0,1024l316,0l0,-422l189,237C744,972 846,1039 944,1039C1005,1039 1051,1035 1081,1026l0,-257C1057,778 1027,782 992,782C947,782 894,750 834,687l-73,-77z"
   id="glyph920" />
<glyph
   unicode="λ"
   horiz-adv-x="1124"
   d="M1103,0l-332,0l-198,708l-229,-708l-339,0l445,1016l-38,106C381,1207 331,1249 260,1249C214,1249 167,1237 119,1212l0,271C172,1501 238,1510 317,1510C414,1510 495,1483 559,1430C622,1376 677,1281 722,1144z"
   id="glyph922" />
<glyph
   unicode="μ"
   horiz-adv-x="1254"
   d="M1122,0l-313,0l0,131l-4,0C787,88 758,53 718,26C678,-2 635,-16 590,-16C525,-16 478,4 449,45l-5,0l2,-389l-313,0l0,1368l316,0l0,-561C449,303 503,223 612,223C666,223 712,240 749,275C786,310 805,355 805,412l0,612l317,0z"
   id="glyph924" />
<glyph
   unicode="ν"
   horiz-adv-x="1134"
   d="M670,0l-285,0l-409,1024l336,0l263,-770C691,401 749,564 749,745C749,798 743,852 730,909C717,966 704,1004 689,1024l316,0C1031,977 1044,897 1044,782C1044,544 919,283 670,0z"
   id="glyph926" />
<glyph
   unicode="ξ"
   horiz-adv-x="978"
   d="M875,-309l-340,0C613,-258 652,-204 652,-145C652,-108 635,-79 602,-58C568,-38 515,-21 444,-6C191,46 64,179 64,394C64,491 96,576 159,650C222,724 308,777 415,810C320,854 273,925 273,1024C273,1142 346,1228 491,1282l0,5C462,1286 422,1286 369,1286l-195,1l0,229l694,0l0,-222C777,1275 703,1243 645,1196C587,1149 558,1096 558,1035C558,963 591,911 658,878C677,878 734,881 831,886l0,-252C787,637 739,638 688,638C601,638 529,619 472,581C415,543 387,492 387,429C387,328 461,261 610,230C741,202 832,164 885,115C938,66 964,3 964,-75C964,-160 934,-238 875,-309z"
   id="glyph928" />
<glyph
   unicode="ο"
   horiz-adv-x="1252"
   d="M621,-25C450,-25 316,23 219,119C121,214 72,344 72,508C72,677 123,810 224,906C325,1001 462,1049 635,1049C805,1049 938,1001 1035,906C1132,810 1180,683 1180,526C1180,356 1130,222 1031,123C931,24 794,-25 621,-25M629,807C554,807 496,781 455,730C414,679 393,606 393,512C393,315 472,217 631,217C782,217 858,318 858,520C858,711 782,807 629,807z"
   id="glyph930" />
<glyph
   unicode="ρ"
   horiz-adv-x="1266"
   d="M450,70l-4,0l0,-465l-317,0l0,903C129,679 174,812 264,907C354,1002 485,1049 656,1049C821,1049 952,1002 1049,907C1146,812 1194,683 1194,520C1194,355 1152,223 1068,124C983,25 870,-25 728,-25C615,-25 523,7 450,70M446,307C501,247 567,217 644,217C796,217 872,316 872,513C872,598 851,669 810,724C768,779 714,807 648,807C513,807 446,718 446,541z"
   id="glyph932" />
<glyph
   unicode="ς"
   horiz-adv-x="999"
   d="M866,-309l-332,0C612,-255 651,-198 651,-137C651,-71 584,-24 450,5C330,31 237,82 171,157C104,232 71,325 71,438C71,622 127,770 240,882C352,993 489,1049 650,1049C757,1049 844,1032 911,999l0,-268C845,782 771,807 690,807C606,807 536,775 479,710C422,645 394,564 394,466C394,405 411,356 446,319C481,282 545,251 640,228C850,177 955,71 955,-88C955,-173 925,-247 866,-309z"
   id="glyph934" />
<glyph
   unicode="υ"
   horiz-adv-x="1261"
   d="M125,1024l316,0l0,-542C441,312 508,227 643,227C774,227 840,308 840,470C840,642 797,827 711,1024l329,0C1119,843 1158,660 1158,474C1158,317 1112,195 1019,107C926,19 797,-25 634,-25C471,-25 346,16 258,99C169,182 125,297 125,444z"
   id="glyph936" />
<glyph
   unicode="χ"
   horiz-adv-x="1135"
   d="M1135,-458C1102,-472 1054,-479 990,-479C914,-479 850,-455 797,-406C744,-358 692,-275 642,-157l-96,228l-239,-534l-334,0l438,801l-128,296C235,745 187,800 138,800C106,800 73,791 38,774l0,255C69,1042 120,1049 191,1049C264,1049 324,1031 371,996C418,960 458,900 493,815l88,-217l178,426l337,0l-375,-690l167,-376C924,-123 953,-174 975,-195C996,-217 1021,-228 1048,-228C1079,-228 1108,-221 1135,-206z"
   id="glyph938" />
<glyph
   unicode="ψ"
   horiz-adv-x="1620"
   d="M1498,559C1498,380 1451,238 1356,133C1261,28 1135,-24 978,-24l-26,0l0,-457l-285,0l0,457l-26,0C484,-24 359,28 264,133C169,238 121,380 121,559l0,465l296,0l0,-465C417,452 439,368 482,309C525,250 581,220 652,220l15,0l0,1111l285,0l0,-1111l15,0C1038,220 1095,250 1138,309C1181,368 1202,452 1202,559l0,465l296,0z"
   id="glyph940" />
<glyph
   unicode="ω"
   horiz-adv-x="1703"
   d="M852,152l-4,0C783,35 678,-24 533,-24C396,-24 288,22 210,113C131,204 92,327 92,483C92,653 135,833 221,1024l321,0C440,827 389,646 389,481C389,312 442,228 548,228C652,228 704,308 704,469l0,281l296,0l0,-281C1000,308 1051,228 1154,228C1260,228 1313,312 1313,481C1313,646 1262,827 1160,1024l321,0C1568,832 1611,651 1611,482C1611,325 1571,201 1492,111C1413,21 1304,-24 1167,-24C1020,-24 915,35 852,152z"
   id="glyph942" />
<glyph
   unicode="ϊ"
   horiz-adv-x="672"
   d="M653,14C606,-8 544,-19 468,-19C259,-19 154,93 154,316l0,708l316,0l0,-661C470,276 499,233 558,233C588,233 620,241 653,256M556,1173C511,1173 475,1186 446,1212C417,1238 403,1271 403,1310C403,1351 417,1384 446,1409C475,1434 511,1447 556,1447C601,1447 638,1434 667,1409C696,1383 710,1350 710,1310C710,1270 696,1237 667,1212C638,1186 601,1173 556,1173M98,1173C53,1173 16,1186 -13,1213C-42,1239 -56,1271 -56,1310C-56,1350 -41,1383 -12,1409C17,1434 54,1447 98,1447C143,1447 180,1434 209,1409C237,1383 251,1350 251,1310C251,1269 237,1236 209,1211C180,1186 143,1173 98,1173z"
   id="glyph944" />
<glyph
   unicode="ϋ"
   horiz-adv-x="1261"
   d="M125,1024l316,0l0,-542C441,312 508,227 643,227C774,227 840,308 840,470C840,642 797,827 711,1024l329,0C1119,843 1158,660 1158,474C1158,317 1112,195 1019,107C926,19 797,-25 634,-25C471,-25 346,16 258,99C169,182 125,297 125,444M837,1173C792,1173 756,1186 727,1212C698,1238 684,1271 684,1310C684,1351 698,1384 727,1409C756,1434 792,1447 837,1447C882,1447 919,1434 948,1409C977,1383 991,1350 991,1310C991,1270 977,1237 948,1212C919,1186 882,1173 837,1173M379,1173C334,1173 297,1186 268,1213C239,1239 225,1271 225,1310C225,1350 240,1383 269,1409C298,1434 335,1447 379,1447C424,1447 461,1434 490,1409C518,1383 532,1350 532,1310C532,1269 518,1236 490,1211C461,1186 424,1173 379,1173z"
   id="glyph946" />
<glyph
   unicode="ό"
   horiz-adv-x="1252"
   d="M621,-25C450,-25 316,23 219,119C121,214 72,344 72,508C72,677 123,810 224,906C325,1001 462,1049 635,1049C805,1049 938,1001 1035,906C1132,810 1180,683 1180,526C1180,356 1130,222 1031,123C931,24 794,-25 621,-25M629,807C554,807 496,781 455,730C414,679 393,606 393,512C393,315 472,217 631,217C782,217 858,318 858,520C858,711 782,807 629,807M871,1508l-207,-340l-169,0l95,340z"
   id="glyph948" />
<glyph
   unicode="ύ"
   horiz-adv-x="1261"
   d="M125,1024l316,0l0,-542C441,312 508,227 643,227C774,227 840,308 840,470C840,642 797,827 711,1024l329,0C1119,843 1158,660 1158,474C1158,317 1112,195 1019,107C926,19 797,-25 634,-25C471,-25 346,16 258,99C169,182 125,297 125,444M849,1508l-207,-340l-169,0l95,340z"
   id="glyph950" />
<glyph
   unicode="ώ"
   horiz-adv-x="1703"
   d="M852,152l-4,0C783,35 678,-24 533,-24C396,-24 288,22 210,113C131,204 92,327 92,483C92,653 135,833 221,1024l321,0C440,827 389,646 389,481C389,312 442,228 548,228C652,228 704,308 704,469l0,281l296,0l0,-281C1000,308 1051,228 1154,228C1260,228 1313,312 1313,481C1313,646 1262,827 1160,1024l321,0C1568,832 1611,651 1611,482C1611,325 1571,201 1492,111C1413,21 1304,-24 1167,-24C1020,-24 915,35 852,152M1089,1508l-207,-340l-169,0l95,340z"
   id="glyph952" />
<glyph
   unicode="Ё"
   horiz-adv-x="1090"
   d="M1024,0l-860,0l0,1434l827,0l0,-263l-504,0l0,-319l469,0l0,-262l-469,0l0,-328l537,0M837,1534C792,1534 756,1547 727,1573C698,1599 684,1632 684,1671C684,1712 698,1745 727,1770C756,1795 792,1808 837,1808C882,1808 919,1795 948,1770C977,1744 991,1711 991,1671C991,1631 977,1598 948,1573C919,1547 882,1534 837,1534M379,1534C334,1534 297,1547 268,1574C239,1600 225,1632 225,1671C225,1711 240,1744 269,1770C298,1795 335,1808 379,1808C424,1808 461,1795 490,1770C518,1744 532,1711 532,1671C532,1630 518,1597 490,1572C461,1547 424,1534 379,1534z"
   id="glyph954" />
<glyph
   unicode="Ђ"
   horiz-adv-x="1545"
   d="M872,14l0,236C914,231 959,221 1006,221C1052,221 1089,238 1117,272C1145,305 1159,351 1159,408C1159,554 1076,627 911,627l-178,0l0,-627l-323,0l0,1169l-379,0l0,265l1140,0l0,-265l-438,0l0,-305l232,0C1122,864 1245,824 1335,743C1425,662 1470,551 1470,410C1470,277 1435,173 1364,98C1293,23 1194,-14 1065,-14C983,-14 919,-5 872,14z"
   id="glyph956" />
<glyph
   unicode="Ѓ"
   horiz-adv-x="1048"
   d="M1018,1167l-531,0l0,-1167l-323,0l0,1434l854,0M924,1890l-313,-323l-228,0l260,323z"
   id="glyph958" />
<glyph
   unicode="Є"
   horiz-adv-x="1277"
   d="M1190,51C1085,0 949,-25 780,-25C558,-25 385,40 261,169C136,298 74,471 74,686C74,924 141,1112 274,1251C407,1389 588,1458 815,1458C960,1458 1085,1440 1190,1405l0,-297C1089,1165 972,1194 838,1194C722,1194 628,1163 557,1102C486,1040 442,953 426,840l553,0l0,-256l-551,0C442,475 484,390 555,330C625,270 718,240 834,240C967,240 1085,271 1190,332z"
   id="glyph960" />
<glyph
   unicode="Ѕ"
   horiz-adv-x="1098"
   d="M106,55l0,320C221,278 347,229 485,229C551,229 602,243 639,270C676,297 694,332 694,375C694,412 679,448 648,481C617,514 544,557 428,612C209,715 100,855 100,1032C100,1161 148,1264 243,1342C338,1419 464,1458 623,1458C763,1458 879,1440 971,1403l0,-299C875,1171 765,1204 641,1204C579,1204 530,1191 494,1164C458,1137 440,1102 440,1059C440,1016 454,980 483,950C511,920 571,883 662,840C803,773 901,706 954,639C1007,572 1034,494 1034,403C1034,271 987,167 892,90C797,13 658,-25 477,-25C328,-25 205,2 106,55z"
   id="glyph962" />
<glyph
   unicode="Ї"
   horiz-adv-x="649"
   d="M487,0l-323,0l0,1434l323,0M558,1534C513,1534 477,1547 448,1573C419,1599 405,1632 405,1671C405,1712 419,1745 448,1770C477,1795 513,1808 558,1808C603,1808 640,1795 669,1770C698,1744 712,1711 712,1671C712,1631 698,1598 669,1573C640,1547 603,1534 558,1534M100,1534C55,1534 18,1547 -11,1574C-40,1600 -54,1632 -54,1671C-54,1711 -39,1744 -10,1770C19,1795 56,1808 100,1808C145,1808 182,1795 211,1770C239,1744 253,1711 253,1671C253,1630 239,1597 211,1572C182,1547 145,1534 100,1534z"
   id="glyph964" />
<glyph
   unicode="Љ"
   horiz-adv-x="2118"
   d="M1008,0l0,1165l-287,0C700,1010 676,860 649,716C622,572 597,452 573,356C549,259 526,190 503,148C480,106 454,73 425,50C396,26 363,8 326,-3C289,-14 248,-20 203,-20C136,-20 76,-10 23,10l0,264C60,255 96,246 129,246C148,246 165,250 180,259C195,267 210,283 225,308C240,332 262,397 291,504C319,611 348,743 377,902C406,1060 433,1237 459,1434l872,0l0,-549l211,0C1887,885 2060,746 2060,467C2060,320 2013,205 1920,123C1827,41 1695,0 1526,0M1331,641l0,-395l146,0C1639,246 1720,312 1720,444C1720,575 1641,641 1483,641z"
   id="glyph966" />
<glyph
   unicode="Њ"
   horiz-adv-x="2142"
   d="M1034,0l0,606l-547,0l0,-606l-323,0l0,1434l323,0l0,-553l547,0l0,553l322,0l0,-541l213,0C1913,893 2085,752 2085,471C2085,322 2039,206 1946,124C1853,41 1721,0 1550,0M1356,641l0,-393l147,0C1664,248 1745,315 1745,449C1745,577 1666,641 1509,641z"
   id="glyph968" />
<glyph
   unicode="Ћ"
   horiz-adv-x="1637"
   d="M1542,0l-321,0l0,360C1221,512 1140,588 979,588l-217,0l0,-588l-324,0l0,1169l-407,0l0,265l1140,0l0,-265l-409,0l0,-309l274,0C1201,860 1327,819 1413,738C1499,657 1542,539 1542,385z"
   id="glyph970" />
<glyph
   unicode="Ќ"
   horiz-adv-x="1329"
   d="M1356,0l-408,0l-418,623C522,635 509,661 492,702l-5,0l0,-702l-323,0l0,1434l323,0l0,-678l5,0C500,775 513,801 532,836l396,598l385,0l-500,-684M1047,1890l-313,-323l-228,0l260,323z"
   id="glyph972" />
<glyph
   unicode="Ў"
   horiz-adv-x="1260"
   d="M1268,1434l-449,-983C735,267 656,142 581,75C506,8 412,-25 297,-25C221,-25 159,-14 111,8l0,295C166,268 222,250 281,250C362,250 433,315 494,446l-471,988l368,0l238,-574C643,825 654,786 662,743l2,0C671,779 683,817 698,856l230,578M1081,1874C1072,1781 1029,1706 950,1651C871,1595 774,1567 659,1567C547,1567 451,1596 370,1653C289,1710 247,1783 243,1874l220,0C466,1825 487,1787 524,1760C561,1732 607,1718 663,1718C718,1718 764,1732 800,1760C836,1787 856,1825 860,1874z"
   id="glyph974" />
<glyph
   unicode="Џ"
   horiz-adv-x="1566"
   d="M1405,0l-492,0l0,-324l-264,0l0,324l-485,0l0,1434l323,0l0,-1158l594,0l0,1158l324,0z"
   id="glyph976" />
<glyph
   unicode="А"
   horiz-adv-x="1440"
   d="M1425,0l-352,0l-102,319l-510,0l-101,-319l-350,0l522,1434l383,0M897,567l-154,482C732,1085 724,1128 719,1178l-8,0C708,1136 699,1094 686,1053l-156,-486z"
   id="glyph978" />
<glyph
   unicode="Б"
   horiz-adv-x="1315"
   d="M164,0l0,1434l923,0l0,-265l-600,0l0,-313l277,0C917,856 1036,821 1120,750C1203,679 1245,580 1245,455C1245,311 1201,199 1112,120C1023,40 896,0 733,0M487,621l0,-385l189,0C827,236 903,302 903,434C903,559 831,621 686,621z"
   id="glyph980" />
<glyph
   unicode="В"
   horiz-adv-x="1313"
   d="M164,0l0,1434l522,0C846,1434 969,1405 1055,1346C1141,1287 1184,1205 1184,1098C1184,1021 1158,953 1106,895C1053,837 986,797 905,774l0,-4C1007,757 1089,720 1150,657C1211,594 1241,518 1241,428C1241,297 1194,193 1100,116C1006,39 878,0 715,0M487,1196l0,-340l142,0C696,856 748,872 787,905C825,937 844,981 844,1038C844,1143 765,1196 608,1196M487,616l0,-378l175,0C737,238 795,255 838,290C880,325 901,372 901,432C901,489 880,534 839,567C797,600 739,616 664,616z"
   id="glyph982" />
<glyph
   unicode="Г"
   horiz-adv-x="1048"
   d="M1018,1167l-531,0l0,-1167l-323,0l0,1434l854,0z"
   id="glyph984" />
<glyph
   unicode="Д"
   horiz-adv-x="1587"
   d="M1513,-324l-264,0l0,324l-950,0l0,-324l-260,0l0,588l133,0C357,599 460,989 479,1434l830,0l0,-1170l204,0M985,264l0,901l-244,0C733,1032 707,882 664,716C621,549 567,399 504,264z"
   id="glyph986" />
<glyph
   unicode="Е"
   horiz-adv-x="1090"
   d="M1024,0l-860,0l0,1434l827,0l0,-263l-504,0l0,-319l469,0l0,-262l-469,0l0,-328l537,0z"
   id="glyph988" />
<glyph
   unicode="Ж"
   horiz-adv-x="2033"
   d="M2042,0l-402,0l-423,618C1206,634 1193,658 1178,690l-4,0l0,-690l-316,0l0,690l-4,0C847,675 834,651 815,618l-424,-618l-401,0l547,748l-506,686l385,0l399,-600C832,809 845,787 854,768l4,0l0,666l316,0l0,-666l4,0C1187,787 1200,809 1217,834l399,600l385,0l-506,-686z"
   id="glyph990" />
<glyph
   unicode="З"
   horiz-adv-x="1144"
   d="M72,53l0,283C186,259 316,221 461,221C641,221 731,286 731,416C731,548 632,614 434,614l-184,0l0,242l176,0C602,856 690,918 690,1042C690,1155 615,1212 465,1212C358,1212 243,1178 121,1110l0,264C244,1430 379,1458 528,1458C685,1458 806,1426 893,1361C979,1296 1022,1207 1022,1096C1022,1009 998,935 949,874C900,813 830,771 739,750l0,-5C841,732 921,695 979,635C1036,574 1065,499 1065,410C1065,272 1015,165 915,89C815,13 671,-25 483,-25C304,-25 167,1 72,53z"
   id="glyph992" />
<glyph
   unicode="И"
   horiz-adv-x="1619"
   d="M1454,0l-305,0l0,788C1149,879 1152,956 1159,1020l-6,0C1139,993 1115,953 1081,901l-592,-901l-325,0l0,1434l305,0l0,-793C469,543 466,477 461,444l4,0C468,452 493,491 539,561l569,873l346,0z"
   id="glyph994" />
<glyph
   unicode="Й"
   horiz-adv-x="1618"
   d="M1454,0l-305,0l0,788C1149,879 1152,956 1159,1020l-6,0C1139,993 1115,953 1081,901l-592,-901l-325,0l0,1434l305,0l0,-793C469,543 466,477 461,444l4,0C468,452 493,491 539,561l569,873l346,0M1266,1874C1257,1781 1214,1706 1135,1651C1056,1595 959,1567 844,1567C732,1567 636,1596 555,1653C474,1710 432,1783 428,1874l220,0C651,1825 672,1787 709,1760C746,1732 792,1718 848,1718C903,1718 949,1732 985,1760C1021,1787 1041,1825 1045,1874z"
   id="glyph996" />
<glyph
   unicode="К"
   horiz-adv-x="1329"
   d="M1356,0l-408,0l-418,623C522,635 509,661 492,702l-5,0l0,-702l-323,0l0,1434l323,0l0,-678l5,0C500,775 513,801 532,836l396,598l385,0l-500,-684z"
   id="glyph998" />
<glyph
   unicode="Л"
   horiz-adv-x="1495"
   d="M1331,0l-323,0l0,1165l-287,0C644,616 571,281 504,161C437,40 334,-20 197,-20C139,-20 81,-11 23,8l0,258C62,253 95,246 123,246C150,246 175,255 196,272C217,289 240,335 265,410C290,485 321,614 357,797C392,980 426,1192 459,1434l872,0z"
   id="glyph1000" />
<glyph
   unicode="М"
   horiz-adv-x="1960"
   d="M1798,0l-319,0l0,858C1479,951 1483,1053 1491,1165l-8,0C1466,1077 1451,1014 1438,975l-336,-975l-264,0l-342,965C487,991 472,1058 451,1165l-9,0C451,1024 455,900 455,793l0,-793l-291,0l0,1434l473,0l293,-850C953,516 970,448 981,379l6,0C1005,458 1024,527 1044,586l293,848l461,0z"
   id="glyph1002" />
<glyph
   unicode="Н"
   horiz-adv-x="1569"
   d="M1405,0l-324,0l0,584l-594,0l0,-584l-323,0l0,1434l323,0l0,-572l594,0l0,572l324,0z"
   id="glyph1004" />
<glyph
   unicode="О"
   horiz-adv-x="1553"
   d="M770,-25C565,-25 397,42 268,176C139,309 74,483 74,698C74,925 140,1108 271,1248C402,1388 576,1458 793,1458C998,1458 1163,1391 1290,1257C1416,1123 1479,946 1479,727C1479,502 1414,320 1283,182C1152,44 981,-25 770,-25M784,1180C671,1180 581,1138 514,1053C447,968 414,855 414,715C414,573 447,461 514,378C581,295 668,254 776,254C887,254 976,294 1041,375C1106,455 1139,566 1139,709C1139,858 1107,973 1044,1056C981,1139 894,1180 784,1180z"
   id="glyph1006" />
<glyph
   unicode="П"
   horiz-adv-x="1567"
   d="M1404,0l-323,0l0,1152l-594,0l0,-1152l-323,0l0,1434l1240,0z"
   id="glyph1008" />
<glyph
   unicode="Р"
   horiz-adv-x="1258"
   d="M487,494l0,-494l-323,0l0,1434l506,0C1031,1434 1212,1282 1212,977C1212,833 1160,717 1057,628C953,539 814,494 641,494M487,1186l0,-447l127,0C786,739 872,814 872,965C872,1112 786,1186 614,1186z"
   id="glyph1010" />
<glyph
   unicode="С"
   horiz-adv-x="1278"
   d="M1192,51C1087,0 951,-25 782,-25C562,-25 389,40 263,169C137,298 74,471 74,686C74,915 145,1101 287,1244C428,1387 612,1458 838,1458C978,1458 1096,1440 1192,1405l0,-311C1096,1151 987,1180 864,1180C729,1180 621,1138 538,1053C455,968 414,854 414,709C414,570 453,460 531,378C609,295 714,254 846,254C972,254 1087,285 1192,346z"
   id="glyph1012" />
<glyph
   unicode="Т"
   horiz-adv-x="1200"
   d="M1171,1171l-409,0l0,-1171l-324,0l0,1171l-407,0l0,263l1140,0z"
   id="glyph1014" />
<glyph
   unicode="У"
   horiz-adv-x="1259"
   d="M1268,1434l-449,-983C735,267 656,142 581,75C506,8 412,-25 297,-25C221,-25 159,-14 111,8l0,295C166,268 222,250 281,250C362,250 433,315 494,446l-471,988l368,0l238,-574C643,825 654,786 662,743l2,0C671,779 683,817 698,856l230,578z"
   id="glyph1016" />
<glyph
   unicode="Ф"
   horiz-adv-x="1718"
   d="M1016,156l0,-164l-314,0l0,164l-34,0C485,156 339,210 232,319C124,427 70,567 70,739C70,907 123,1042 229,1145C334,1247 479,1298 664,1298l38,0l0,164l314,0l0,-164l37,0C1239,1298 1385,1247 1491,1145C1596,1043 1649,908 1649,739C1649,567 1595,427 1487,319C1379,210 1233,156 1049,156M1016,1057l0,-656l14,0C1119,401 1190,431 1241,492C1292,552 1317,632 1317,731C1317,830 1292,910 1241,969C1190,1028 1120,1057 1032,1057M702,401l0,656l-18,0C597,1057 529,1027 478,968C427,909 401,830 401,731C401,631 426,551 477,491C527,431 597,401 686,401z"
   id="glyph1018" />
<glyph
   unicode="Х"
   horiz-adv-x="1342"
   d="M1335,0l-383,0l-247,467C696,484 686,516 676,563l-4,0C667,541 656,508 639,463l-248,-463l-385,0l457,717l-418,717l393,0l205,-430C659,970 673,930 686,883l4,0C698,911 713,953 735,1008l228,426l360,0l-430,-711z"
   id="glyph1020" />
<glyph
   unicode="Ц"
   horiz-adv-x="1682"
   d="M1610,-324l-264,0l0,324l-1182,0l0,1434l323,0l0,-1158l594,0l0,1158l324,0l0,-1158l205,0z"
   id="glyph1022" />
<glyph
   unicode="Ч"
   horiz-adv-x="1487"
   d="M1315,0l-324,0l0,569C857,496 721,459 584,459C287,459 139,602 139,887l0,547l322,0l0,-519C461,791 529,729 666,729C774,729 882,762 991,827l0,607l324,0z"
   id="glyph1024" />
<glyph
   unicode="Ш"
   horiz-adv-x="2071"
   d="M1907,0l-1743,0l0,1434l323,0l0,-1158l387,0l0,1158l322,0l0,-1158l387,0l0,1158l324,0z"
   id="glyph1026" />
<glyph
   unicode="Щ"
   horiz-adv-x="2184"
   d="M2111,-324l-264,0l0,324l-1683,0l0,1434l323,0l0,-1158l387,0l0,1158l322,0l0,-1158l387,0l0,1158l324,0l0,-1158l204,0z"
   id="glyph1028" />
<glyph
   unicode="Ъ"
   horiz-adv-x="1551"
   d="M438,0l0,1169l-407,0l0,265l731,0l0,-537l211,0C1318,897 1491,756 1491,475C1491,325 1444,208 1351,125C1258,42 1126,0 956,0M762,653l0,-407l145,0C1070,246 1151,315 1151,453C1151,586 1072,653 913,653z"
   id="glyph1030" />
<glyph
   unicode="Ы"
   horiz-adv-x="1840"
   d="M1675,0l-321,0l0,1434l321,0M164,0l0,1434l323,0l0,-537l211,0C1044,897 1217,756 1217,475C1217,325 1170,208 1077,125C984,42 852,0 682,0M487,653l0,-407l146,0C796,246 877,315 877,453C877,586 798,653 639,653z"
   id="glyph1032" />
<glyph
   unicode="Ь"
   horiz-adv-x="1276"
   d="M164,0l0,1434l323,0l0,-537l211,0C1044,897 1217,756 1217,475C1217,325 1170,208 1077,125C984,42 852,0 682,0M487,653l0,-407l146,0C796,246 877,315 877,453C877,586 798,653 639,653z"
   id="glyph1034" />
<glyph
   unicode="Э"
   horiz-adv-x="1277"
   d="M88,51l0,281C193,271 311,240 442,240C683,240 819,355 850,584l-553,0l0,256l555,0C811,1076 675,1194 444,1194C313,1194 194,1166 88,1110l0,291C199,1439 329,1458 477,1458C704,1458 882,1393 1010,1262C1138,1131 1202,948 1202,713C1202,491 1138,313 1011,178C884,43 710,-25 489,-25C327,-25 193,0 88,51z"
   id="glyph1036" />
<glyph
   unicode="Ю"
   horiz-adv-x="2179"
   d="M764,594l-277,0l0,-594l-323,0l0,1434l323,0l0,-570l283,0C800,1047 875,1192 995,1299C1115,1405 1265,1458 1444,1458C1643,1458 1803,1391 1924,1258C2045,1125 2105,948 2105,727C2105,499 2042,317 1917,180C1792,43 1626,-25 1421,-25C1244,-25 1095,31 976,143C856,255 785,405 764,594M1440,1180C1331,1180 1247,1139 1188,1058C1128,977 1098,864 1098,719C1098,568 1127,453 1184,374C1241,294 1322,254 1427,254C1533,254 1616,293 1675,372C1734,451 1763,563 1763,709C1763,859 1735,975 1679,1057C1622,1139 1543,1180 1440,1180z"
   id="glyph1038" />
<glyph
   unicode="Я"
   horiz-adv-x="1311"
   d="M1147,0l-324,0l0,557l-86,0C657,557 592,496 541,375l-156,-375l-373,0l201,428C270,549 344,624 436,653l0,4C225,707 119,829 119,1024C119,1153 166,1253 259,1326C352,1398 484,1434 653,1434l494,0M823,799l0,389l-135,0C537,1188 461,1125 461,999C461,939 482,891 523,854C564,817 619,799 688,799z"
   id="glyph1040" />
<glyph
   unicode="а"
   horiz-adv-x="1102"
   d="M985,0l-299,0l0,147l-4,0C613,32 512,-25 377,-25C278,-25 200,3 143,60C86,116 57,191 57,285C57,484 175,598 410,629l278,37C688,778 627,834 506,834C384,834 268,798 158,725l0,238C202,986 262,1006 339,1023C415,1040 484,1049 547,1049C839,1049 985,903 985,612M688,416l0,69l-186,-24C399,448 348,401 348,322C348,286 361,257 386,234C411,211 444,199 487,199C546,199 595,220 632,261C669,302 688,353 688,416z"
   id="glyph1042" />
<glyph
   unicode="б"
   horiz-adv-x="1247"
   d="M1040,1540l0,-250C1008,1265 965,1249 912,1241C762,1218 672,1203 643,1196C582,1182 538,1163 511,1139C483,1115 460,1080 443,1034C425,988 413,932 406,866l4,0C486,953 588,997 715,997C860,997 974,954 1055,868C1136,781 1176,662 1176,510C1176,347 1126,218 1027,121C928,24 793,-25 623,-25C445,-25 310,32 217,145C124,258 78,422 78,637C78,740 86,833 101,916C116,999 139,1072 170,1136C201,1199 239,1252 284,1295C329,1338 375,1369 422,1389C469,1408 515,1423 560,1433C605,1442 719,1461 901,1489C961,1504 1007,1521 1040,1540M401,645C400,629 399,598 399,551C399,449 420,368 461,308C502,247 558,217 631,217C697,217 751,242 792,293C833,344 854,411 854,496C854,582 833,649 792,698C750,746 694,770 623,770C577,770 534,758 493,734C452,710 421,680 401,645z"
   id="glyph1044" />
<glyph
   unicode="в"
   horiz-adv-x="1187"
   d="M133,0l0,1024l572,0C949,1024 1071,941 1071,774C1071,715 1052,665 1014,624C975,583 925,556 864,543C939,534 999,508 1042,465C1085,422 1106,369 1106,307C1106,214 1073,140 1007,84C941,28 850,0 735,0M449,831l0,-215l155,0C700,616 748,654 748,729C748,797 703,831 612,831M449,430l0,-233l182,0C732,197 782,238 782,319C782,393 730,430 627,430z"
   id="glyph1046" />
<glyph
   unicode="г"
   horiz-adv-x="840"
   d="M801,784l-352,0l0,-784l-316,0l0,1024l668,0z"
   id="glyph1048" />
<glyph
   unicode="д"
   horiz-adv-x="1269"
   d="M1219,-250l-238,0l0,250l-729,0l0,-250l-234,0l0,473l91,0C254,449 330,716 338,1024l719,0l0,-801l162,0M741,223l0,580l-157,0C569,587 513,394 416,223z"
   id="glyph1050" />
<glyph
   unicode="е"
   horiz-adv-x="1108"
   d="M1053,422l-668,0C396,273 489,199 666,199C779,199 878,226 963,279l0,-228C868,0 745,-25 594,-25C429,-25 300,21 209,113C118,204 72,332 72,496C72,666 121,801 220,900C319,999 440,1049 584,1049C733,1049 849,1005 931,916C1012,827 1053,707 1053,555M760,616C760,763 701,836 582,836C531,836 488,815 451,773C414,731 391,679 383,616z"
   id="glyph1052" />
<glyph
   unicode="ж"
   horiz-adv-x="1736"
   d="M1731,0l-373,0l-330,512l-4,0l0,-512l-311,0l0,512l-4,0l-328,-512l-373,0l389,537l-379,487l371,0l320,-485l4,0l0,485l311,0l0,-485l4,0l320,485l370,0l-379,-487z"
   id="glyph1054" />
<glyph
   unicode="з"
   horiz-adv-x="984"
   d="M80,27l0,229C179,211 277,188 375,188C517,188 588,227 588,305C588,386 511,426 356,426l-143,0l0,195l145,0C491,621 557,660 557,737C557,806 498,840 379,840C290,840 200,820 111,780l0,217C231,1032 339,1049 436,1049C734,1049 883,957 883,772C883,644 804,565 645,535l0,-5C729,523 795,497 842,454C889,411 913,356 913,289C913,83 746,-20 412,-20C285,-20 174,-4 80,27z"
   id="glyph1056" />
<glyph
   unicode="и"
   horiz-adv-x="1285"
   d="M1151,0l-287,0l0,670C838,617 810,569 780,524l-348,-524l-299,0l0,1024l289,0l0,-649C443,420 467,461 492,500l348,524l311,0z"
   id="glyph1058" />
<glyph
   unicode="й"
   horiz-adv-x="1284"
   d="M1151,0l-287,0l0,670C838,617 810,569 780,524l-348,-524l-299,0l0,1024l289,0l0,-649C443,420 467,461 492,500l348,524l311,0M1067,1493C1058,1400 1015,1325 936,1270C857,1214 760,1186 645,1186C533,1186 437,1215 356,1272C275,1329 233,1402 229,1493l220,0C452,1444 473,1406 510,1379C547,1351 593,1337 649,1337C704,1337 750,1351 786,1379C822,1406 842,1444 846,1493z"
   id="glyph1060" />
<glyph
   unicode="к"
   horiz-adv-x="1145"
   d="M1155,0l-379,0l-323,500l-4,0l0,-500l-316,0l0,1024l316,0l0,-481l4,0l315,481l375,0l-377,-487z"
   id="glyph1062" />
<glyph
   unicode="л"
   horiz-adv-x="1235"
   d="M1102,0l-318,0l0,801l-174,0C573,491 519,278 446,162C373,46 270,-12 139,-12C94,-12 53,-5 16,8l0,215C39,212 64,207 90,207C153,207 205,265 246,382C287,499 325,713 358,1024l744,0z"
   id="glyph1064" />
<glyph
   unicode="м"
   horiz-adv-x="1591"
   d="M1458,0l-295,0l0,797C1156,760 1139,697 1110,608l-199,-608l-278,0l-199,608C401,708 384,770 381,795l0,-795l-248,0l0,1024l416,0l194,-584C773,350 790,289 793,258C798,288 815,348 844,438l192,586l422,0z"
   id="glyph1066" />
<glyph
   unicode="н"
   horiz-adv-x="1253"
   d="M1120,0l-317,0l0,428l-354,0l0,-428l-316,0l0,1024l316,0l0,-379l354,0l0,379l317,0z"
   id="glyph1068" />
<glyph
   unicode="о"
   horiz-adv-x="1252"
   d="M621,-25C450,-25 316,23 219,119C121,214 72,344 72,508C72,677 123,810 224,906C325,1001 462,1049 635,1049C805,1049 938,1001 1035,906C1132,810 1180,683 1180,526C1180,356 1130,222 1031,123C931,24 794,-25 621,-25M629,807C554,807 496,781 455,730C414,679 393,606 393,512C393,315 472,217 631,217C782,217 858,318 858,520C858,711 782,807 629,807z"
   id="glyph1070" />
<glyph
   unicode="п"
   horiz-adv-x="1253"
   d="M1120,0l-317,0l0,801l-354,0l0,-801l-316,0l0,1024l987,0z"
   id="glyph1072" />
<glyph
   unicode="р"
   horiz-adv-x="1270"
   d="M453,119l-4,0l0,-590l-316,0l0,1495l316,0l0,-154l4,0C531,989 641,1049 782,1049C915,1049 1017,1004 1090,913C1162,822 1198,698 1198,541C1198,370 1156,233 1072,130C987,27 875,-25 735,-25C612,-25 518,23 453,119M444,539l0,-82C444,386 463,329 500,284C537,239 586,217 647,217C719,217 775,245 815,301C854,356 874,435 874,537C874,717 804,807 664,807C599,807 547,783 506,734C465,685 444,620 444,539z"
   id="glyph1074" />
<glyph
   unicode="с"
   horiz-adv-x="983"
   d="M909,37C838,-4 735,-25 600,-25C443,-25 315,23 218,118C121,213 72,336 72,487C72,661 124,798 229,899C333,999 472,1049 647,1049C768,1049 855,1033 909,1001l0,-268C843,782 769,807 688,807C597,807 526,781 473,728C420,675 393,601 393,508C393,417 418,346 469,295C520,243 589,217 678,217C757,217 834,242 909,291z"
   id="glyph1076" />
<glyph
   unicode="т"
   horiz-adv-x="931"
   d="M899,784l-274,0l0,-784l-318,0l0,784l-276,0l0,240l868,0z"
   id="glyph1078" />
<glyph
   unicode="у"
   horiz-adv-x="1102"
   d="M1108,1024l-416,-1106C592,-348 441,-481 240,-481C163,-481 100,-472 51,-455l0,252C93,-228 139,-240 188,-240C269,-240 326,-202 358,-125l54,127l-416,1022l350,0l191,-623C549,362 558,317 565,264l4,0C575,303 586,348 602,399l193,625z"
   id="glyph1080" />
<glyph
   unicode="ф"
   horiz-adv-x="1606"
   d="M950,-12l0,-463l-295,0l0,463l-49,0C439,-12 308,35 212,130C116,225 68,351 68,508C68,670 116,799 212,894C307,989 439,1036 608,1036l47,0l0,430l295,0l0,-430l45,0C1165,1036 1298,989 1394,894C1490,799 1538,671 1538,508C1538,350 1490,224 1394,130C1298,35 1166,-12 999,-12M950,813l0,-602l13,0C1042,211 1105,238 1150,292C1195,345 1217,417 1217,508C1217,603 1195,678 1151,732C1106,786 1045,813 967,813M655,211l0,602l-16,0C561,813 500,786 456,732C411,678 389,603 389,508C389,417 412,345 457,292C502,238 564,211 643,211z"
   id="glyph1082" />
<glyph
   unicode="х"
   horiz-adv-x="1131"
   d="M1122,1024l-338,-496l336,-528l-364,0l-148,276C596,298 582,329 565,369l-4,0C551,341 537,311 520,279l-149,-279l-363,0l346,510l-325,514l366,0l146,-287C560,699 574,667 582,641l4,0C597,672 611,705 629,739l149,285z"
   id="glyph1084" />
<glyph
   unicode="ц"
   horiz-adv-x="1334"
   d="M1284,-250l-237,0l0,250l-914,0l0,1024l316,0l0,-801l354,0l0,801l317,0l0,-801l164,0z"
   id="glyph1086" />
<glyph
   unicode="ч"
   horiz-adv-x="1230"
   d="M1096,0l-316,0l0,354C673,294 569,264 469,264C237,264 121,381 121,616l0,408l303,0l0,-358C424,561 471,508 565,508C632,508 703,528 780,569l0,455l316,0z"
   id="glyph1088" />
<glyph
   unicode="ш"
   horiz-adv-x="1765"
   d="M1632,0l-1499,0l0,1024l316,0l0,-801l274,0l0,801l317,0l0,-801l275,0l0,801l317,0z"
   id="glyph1090" />
<glyph
   unicode="щ"
   horiz-adv-x="1847"
   d="M1796,-250l-237,0l0,250l-1426,0l0,1024l316,0l0,-801l274,0l0,801l317,0l0,-801l275,0l0,801l317,0l0,-801l164,0z"
   id="glyph1092" />
<glyph
   unicode="ъ"
   horiz-adv-x="1328"
   d="M315,0l0,784l-288,0l0,240l606,0l0,-358l268,0C1018,666 1108,638 1173,582C1238,525 1270,446 1270,344C1270,240 1238,157 1174,94C1109,31 1020,0 907,0M633,467l0,-266l153,0C893,201 946,247 946,338C946,424 894,467 791,467z"
   id="glyph1094" />
<glyph
   unicode="ы"
   horiz-adv-x="1669"
   d="M1536,0l-317,0l0,1024l317,0M133,0l0,1024l316,0l0,-358l270,0C835,666 925,638 990,582C1055,525 1087,446 1087,344C1087,239 1055,156 991,94C927,31 838,0 725,0M449,467l0,-266l153,0C709,201 762,247 762,338C762,424 710,467 606,467z"
   id="glyph1096" />
</font>
</defs>
</svg>
